<?xml version="1.0" standalone="no"?>
<!DOCTYPE svg PUBLIC "-//W3C//DTD SVG 1.1//EN" "http://www.w3.org/Graphics/SVG/1.1/DTD/svg11.dtd" >
<svg xmlns="http://www.w3.org/2000/svg">
<metadata>
Created by FontPrep 20130207 at Mon Feb  3 23:02:41 2014
 By Main
Copyright (c) 2014, Parker Bennett &#60;parkerbennett.com&#62; with Reserved Font Name &#60;Stackicons-Social&#62;, SIL Open Font License 1.1
</metadata>
<defs>
<font id="76cc4077294aa89eeb6c5fa684bb9048" horiz-adv-x='1024' >
  <font-face 
    font-family="Stackicons-Social-Regular"
    font-weight="400"
    font-stretch="normal"
    units-per-em="2048"
    panose-1="0 0 5 0 0 0 0 0 0 0"
    ascent="1638"
    descent="-410"
    cap-height="1602"
    bbox="-57.3333 -560 12082 1973"
    underline-thickness="50"
    underline-position="-167"
    unicode-range="U+000D-E615"
  />
<missing-glyph horiz-adv-x="600" 
 />
    <glyph glyph-name=".notdef" horiz-adv-x="600" 
 />
    <glyph glyph-name="uni0000" horiz-adv-x="569" 
 />
    <glyph glyph-name="uni0000" horiz-adv-x="569" 
 />
    <glyph glyph-name="uni000D" unicode="&#xd;" horiz-adv-x="569" 
 />
    <glyph glyph-name="space" unicode=" " horiz-adv-x="569" 
 />
    <glyph glyph-name="plus" unicode="+" 
d="M1385 953h488v-368h-488v-488h-368v488h-488v368h488v488h368v-488z" />
    <glyph glyph-name="less" unicode="&#x3c;" horiz-adv-x="2028" 
d="M1389 1351l-525 -583l525 -583l-141 -127l-640 710l640 710z" />
    <glyph glyph-name="greater" unicode="&#x3e;" horiz-adv-x="2028" 
d="M1418 768l-640 -710l-141 127l525 583l-525 583l141 127z" />
    <glyph glyph-name="A" unicode="A" 
d="M1195 -84q-226 0 -428 97t-360 276q-7 9 -7 19t8 13q8 4 17 -3q161 -117 373 -186t409 -69q199 0 413 67q108 34 195 80q14 8 26 0t12 -22t-13 -29q-171 -159 -420 -217q-114 -26 -225 -26zM1912 30q-20 -18 -28 -13q-8 4 -3 17q71 194 47 226t-213 7q-13 -1 -15 9t23 28
t75 32t121 13t92 -30q22 -29 -15 -137q-36 -109 -84 -152zM1337 939q-181 0 -256 -59t-75 -165q0 -73 36 -117t91 -45q106 0 163 102q36 66 39 119q2 52 2 64v101zM1216 1602q93 0 185 -27q131 -39 203 -147q10 -14 18 -36t12 -36t8 -40t6 -38q4 -30 3 -82v-435q0 -48 8 -72
q7 -24 11 -35q7 -22 49 -79q41 -56 15 -80q-80 -67 -171 -148q-24 -20 -53 -5q-63 54 -85 85q-21 31 -29 43l-14 21q-92 -93 -170 -127t-174 -35q-169 0 -263 88q-95 88 -95 261q0 172 114 282q102 98 290 127q84 13 161 21t92 10v29q1 3 1 22v25t-2 24q0 16 -2 24t-4 22
t-8 24q-37 77 -133 78q-95 0 -147 -60q-26 -30 -35 -71q-8 -41 -40 -44l-216 24q-17 3 -27 15t-7 31q37 179 189 269q122 72 310 72z" />
    <glyph glyph-name="g" unicode="g" 
d="M1065 1262q-88 0 -109 2t-47 6q-35 5 -77 28q-69 37 -42 139q12 45 38 82t34 47t16 24q10 13 16 23q72 -45 224 -63t320 -8t297 45q18 -111 -16 -172q-21 -37 -97 -125t-146 -170t-579 -644q136 -10 238 -69t180 -107q77 -48 136 -70q120 -46 260 -27q41 6 63 24
q22 19 32 27t11 10q1 0 4 3q25 -92 -6 -187q-30 -95 -113 -148q-83 -52 -194 -37q-112 15 -272 134q-18 13 -41 30t-39 29q-142 100 -278 136t-321 9q-38 191 109 338q249 249 600 706q-113 -15 -201 -15z" />
    <glyph glyph-name="multiply" unicode="&#xd7;" 
d="M2070 528q0 101 -23 198t-66 182t-102 160q-113 144 -292 234t-402 90q-222 0 -422 -116t-317 -315t-117 -433q0 -235 117 -433t316 -315q200 -117 430 -117q307 0 552 190q145 113 237 294q89 176 89 381zM1200 1616q148 0 289 -40t261 -109q120 -71 220 -171t170 -220
t109 -260q39 -141 39 -289t-39 -289t-109 -260q-70 -120 -170 -220t-220 -170t-261 -109t-289 -39t-289 39t-261 109t-220 170t-170 220q-70 119 -109 260t-39 289t39 289q39 140 109 260t170 220t220 171q120 69 261 109t289 40zM1610 1049q46 -1 79 -33t33 -78t-33 -80
l-331 -330l331 -331q33 -33 33 -79t-33 -80q-33 -32 -79 -32t-79 33l-331 330l-331 -330q-33 -33 -79 -33t-79 32t-33 80q0 46 33 79l331 331l-331 330q-33 34 -33 80t33 78t79 33q46 0 79 -32l331 -331l331 331q33 32 79 32z" />
    <glyph glyph-name="uni2009" unicode="&#x2009;" horiz-adv-x="100" 
 />
    <glyph glyph-name="uni200A" unicode="&#x200a;" horiz-adv-x="1" 
 />
    <glyph glyph-name="ellipsis" unicode="&#x2026;" 
d="M1838 455q94 0 160 -66t66 -160q0 -95 -66 -161t-160 -66t-161 66q-66 66 -66 161q0 94 66 160q67 66 161 66zM1200 455q94 0 160 -66t66 -160q0 -95 -66 -161t-160 -66t-160 66t-66 161q0 94 66 160t160 66zM562 455q94 0 161 -66q66 -66 66 -160q0 -95 -66 -161
q-67 -66 -161 -66t-160 66t-66 161q0 94 66 160t160 66z" />
    <glyph glyph-name="guilsinglleft" unicode="&#x2039;" horiz-adv-x="2028" 
d="M1389 1351l-525 -583l525 -583l-141 -127l-640 710l640 710z" />
    <glyph glyph-name="guilsinglright" unicode="&#x203a;" horiz-adv-x="2028" 
d="M1418 768l-640 -710l-141 127l525 583l-525 583l141 127z" />
    <glyph glyph-name="arrowleft" unicode="&#x2190;" horiz-adv-x="1601" 
d="M79 534q0 32 17 53l504 503q50 54 120 58t122 -43q52 -49 54 -117t-45 -123l-189 -176l84 16h604q72 1 122 -49t50 -122t-50 -121q-50 -50 -122 -50h-604l-84 16l189 -175q47 -56 45 -124t-54 -118q-54 -45 -122 -40t-120 56l-504 504q-17 20 -17 52z" />
    <glyph glyph-name="arrowup" unicode="&#x2191;" horiz-adv-x="1601" 
d="M800 1338q32 0 52 -17l503 -504q53 -50 57 -119t-42 -123q-48 -52 -116 -54t-124 45l-175 189l16 -84v-604q0 -72 -50 -122q-49 -50 -121 -50t-122 50t-49 122v604l16 84l-176 -189q-55 -47 -123 -45t-119 54q-45 54 -40 122t56 120l504 504q21 17 53 17z" />
    <glyph glyph-name="arrowright" unicode="&#x2192;" horiz-adv-x="1601" 
d="M1521 528q0 -32 -18 -52l-504 -503q-49 -53 -119 -57t-122 42q-52 48 -54 116t45 124l189 176l-84 -16h-604q-72 0 -122 50t-51 120q1 72 51 122t122 50h604l84 -16l-189 175q-47 57 -45 125t54 116q54 46 122 41t119 -56l504 -504q18 -21 18 -53z" />
    <glyph glyph-name="arrowdown" unicode="&#x2193;" horiz-adv-x="1601" 
d="M800 -100q-32 0 -52 18l-504 503q-52 49 -57 119t42 123q49 52 117 54t124 -45l175 -189l-16 84v604q0 72 50 122t121 50t121 -50t50 -122v-604l-16 -84l175 189q56 47 124 45t118 -54q46 -54 41 -122t-57 -120l-504 -503q-20 -18 -52 -18z" />
    <glyph glyph-name="triagup" unicode="&#x25b2;" horiz-adv-x="2028" 
d="M1724 422h-1420l710 640z" />
    <glyph glyph-name="blackuppointingsmalltriangle" unicode="&#x25b4;" horiz-adv-x="2028" 
d="M1724 422h-1420l710 640z" />
    <glyph glyph-name="blackrightpointingtriangle" unicode="&#x25b6;" horiz-adv-x="2027" 
d="M778 58v1420l640 -710z" />
    <glyph glyph-name="triagrt" unicode="&#x25ba;" horiz-adv-x="2027" 
d="M778 58v1420l640 -710z" />
    <glyph glyph-name="triagdn" unicode="&#x25bc;" horiz-adv-x="2028" 
d="M1014 368l-710 640h1420z" />
    <glyph glyph-name="uni25BE" unicode="&#x25be;" horiz-adv-x="2028" 
d="M1014 368l-710 640h1420z" />
    <glyph glyph-name="blackleftpointingtriangle" unicode="&#x25c0;" horiz-adv-x="2028" 
d="M1248 1478v-1420l-640 710z" />
    <glyph glyph-name="triaglf" unicode="&#x25c4;" horiz-adv-x="2028" 
d="M1248 1478v-1420l-640 710z" />
    <glyph glyph-name="uni2630" unicode="&#x2630;" 
d="M1888 197h-1376v240h1376v-240zM1888 649h-1376v240h1376v-240zM1888 1101h-1376v240h1376v-240z" />
    <glyph glyph-name="uni2709" unicode="&#x2709;" 
d="M1200 653l900 650h-1800zM2076 235v907l-876 -633l-876 633v-907h1752zM214 1410h1972v-1282h-1972v1282z" />
    <glyph glyph-name="uniE001" unicode="&#xe001;" 
d="M2400 1969v-2400h-2400v2400h2400z" />
    <glyph glyph-name="uniE002" unicode="&#xe002;" 
d="M256 1969h1888q106 0 181 -75t75 -181v-1888q0 -106 -75 -181t-181 -75h-1888q-106 0 -181 75t-75 181v1888q0 106 75 181t181 75z" />
    <glyph glyph-name="uniE003" unicode="&#xe003;" 
d="M352 1969h1696q146 0 249 -103t103 -249v-1696q0 -146 -103 -249t-249 -103h-1696q-146 0 -249 103t-103 249v1696q0 146 103 249t249 103z" />
    <glyph glyph-name="uniE004" unicode="&#xe004;" 
d="M837 1969h726q211 -1 307 -7t184 -34q106 -38 186 -118t110 -164t40 -173q10 -88 10 -341v-726q0 -210 -6 -306t-35 -185q-39 -106 -119 -186t-186 -119q-88 -28 -184 -34t-307 -7h-726q-211 1 -307 7t-184 34q-106 39 -186 119t-119 186q-29 89 -35 185t-6 306v726
q0 253 10 341q10 89 40 173t110 164t186 118q88 28 184 34t307 7z" />
    <glyph glyph-name="uniE005" unicode="&#xe005;" 
d="M1200 1969q196 -1 379 -61t331 -171t258 -259q112 -148 172 -330q60 -183 60 -379t-60 -379q-60 -182 -172 -330q-110 -148 -258 -259t-331 -171t-379 -61q-196 1 -379 61t-331 171t-258 259q-112 148 -172 330q-60 183 -60 379t60 379q60 182 172 330q110 148 258 259
t331 171t379 61z" />
    <glyph glyph-name="uniE020" unicode="&#xe020;" 
d="M1200 1669q184 1 350 -71t286 -192t192 -288q72 -166 72 -349t-72 -349t-192 -288q-120 -120 -286 -192t-350 -71q-184 -1 -350 71t-286 192t-192 288q-72 166 -72 349t72 349t192 288q120 120 286 192t350 71z" />
    <glyph glyph-name="uniE021" unicode="&#xe021;" 
d="M2400 1969v-2400h-804v923h320l58 354h-378v284q0 90 83 127q39 17 107 17t188 -7v315q-129 19 -249 19q-237 0 -370 -127q-51 -50 -83 -138t-32 -201v-289h-312v-354h312v-923h-1240v2400h2400z" />
    <glyph glyph-name="uniE022" unicode="&#xe022;" 
d="M256 1969h1888q106 0 181 -75t75 -181v-1888q0 -106 -75 -181t-181 -75h-548v923h320l58 354h-378v284q0 90 83 127q39 17 107 17t188 -7v315q-129 19 -249 19q-237 0 -370 -127q-51 -50 -83 -138t-32 -201v-289h-312v-354h312v-923h-984q-106 0 -181 75t-75 181v1888
q0 106 75 181t181 75z" />
    <glyph glyph-name="uniE023" unicode="&#xe023;" 
d="M352 1969h1696q96 0 177 -47t128 -128t47 -177v-1696q0 -95 -47 -177t-128 -128q-81 -47 -177 -47h-452v923h320l58 354h-378v284q0 90 83 127q39 17 107 17t188 -7v315q-129 19 -249 19q-237 0 -370 -127q-51 -50 -83 -138t-32 -201v-289h-312v-354h312v-923h-888
q-146 0 -249 103t-103 249v1696q0 146 103 249t249 103z" />
    <glyph glyph-name="uniE024" unicode="&#xe024;" 
d="M837 1969h726q211 -1 307 -7t184 -34q106 -38 186 -118t110 -164t40 -173q10 -88 10 -341v-726q0 -210 -6 -306t-35 -185q-53 -143 -175 -235q-60 -44 -130 -70q-86 -27 -178 -34t-280 -7v923h320l58 354h-378v284q0 90 83 127q39 17 107 17t188 -7v315q-129 19 -249 19
q-237 0 -370 -127q-51 -50 -83 -138t-32 -201v-289h-312v-354h312v-923h-403q-211 1 -307 7t-184 34q-106 39 -186 119t-119 186q-29 89 -35 185t-6 306v726q0 210 6 306t35 185q39 107 119 187t186 118q88 28 184 34t307 7z" />
    <glyph glyph-name="uniE025" unicode="&#xe025;" 
d="M2400 790q0 -176 -38 -324q-74 -285 -277 -508q-203 -222 -489 -322v856h320l58 354h-378v284q0 90 83 127q39 17 107 17t188 -7v315q-129 19 -249 19q-237 0 -370 -127q-51 -50 -83 -138t-32 -201v-289h-312v-354h312v-922q-13 -1 -40 -1q-196 1 -379 61t-331 171
t-258 259q-112 148 -172 330q-60 183 -60 379t60 379q60 182 172 330q110 148 258 259t331 171t379 61q196 -1 379 -61t331 -171t258 -259q112 -148 172 -330t60 -358z" />
    <glyph glyph-name="uniE026" unicode="&#xe026;" 
d="M1725 1601q120 0 249 -19v-315q-120 7 -202 7t-128 -39q-48 -39 -48 -105v-284h378l-58 -354h-320v-923h-356v923h-312v354h312v289q0 113 32 201t83 138q133 127 370 127z" />
    <glyph glyph-name="uniE027" unicode="&#xe027;" 
d="M1184 1969q180 0 334 -43q156 -42 288 -120q271 -160 432 -435q162 -274 162 -602q0 -203 -66 -391t-180 -338q-115 -150 -275 -260t-347 -164v881h320l58 354h-378v284q0 89 83 126q39 17 107 17t188 -6v315q-129 19 -249 19q-237 0 -370 -127q-51 -49 -83 -138
t-32 -201v-289h-312v-354h312v-928q-192 5 -372 67t-324 173t-254 257q-108 146 -167 328t-59 376t60 378q60 182 172 330q110 148 258 259t331 171t363 61z" />
    <glyph glyph-name="uniE028" unicode="&#xe028;" 
d="M1661 1606q120 0 249 -19v-315q-120 6 -202 6t-128 -38q-48 -38 -48 -105v-284h378l-58 -354h-320v-881q-160 -47 -332 -47h-24v928h-312v354h312v289q0 112 32 201t83 138q133 127 370 127z" />
    <glyph glyph-name="uniE02A" unicode="&#xe02a;" 
d="M1455 1626q-203 0 -314 -107q-59 -57 -85 -165q-14 -58 -13 -122v-245h-263v-299h263v-780h301v780h271l50 299h-321v241q0 56 40 88t112 33q71 0 168 -5v266q-106 16 -209 16zM2400 -431h-2400v2400h2400v-2400z" />
    <glyph glyph-name="uniE02B" unicode="&#xe02b;" 
d="M1455 1626q-203 0 -314 -107q-59 -57 -85 -165q-14 -58 -13 -122v-245h-263v-299h263v-780h301v780h271l50 299h-321v241q0 56 40 88t112 33q71 0 168 -5v266q-106 16 -209 16zM256 1969h1888q106 0 181 -75t75 -181v-1888q0 -106 -75 -181t-181 -75h-1888
q-106 0 -181 75t-75 181v1888q0 106 75 181t181 75z" />
    <glyph glyph-name="uniE02C" unicode="&#xe02c;" 
d="M1455 1626q-203 0 -314 -107q-59 -57 -85 -165q-14 -58 -13 -122v-245h-263v-299h263v-780h301v780h271l50 299h-321v241q0 56 40 88t112 33q71 0 168 -5v266q-106 16 -209 16zM352 1969h1696q146 0 249 -103t103 -249v-1696q0 -146 -103 -249t-249 -103h-1696
q-146 0 -249 103t-103 249v1696q0 146 103 249t249 103z" />
    <glyph glyph-name="uniE02D" unicode="&#xe02d;" 
d="M1470 1626q-215 0 -329 -107q-43 -41 -71 -117t-27 -170v-245h-263v-299h263v-780h301v780h271l49 299h-320v241q0 56 40 88t112 33q71 0 168 -5v266q-106 16 -194 16zM837 1969h726q211 -1 307 -7t184 -34q106 -38 186 -118t110 -164t40 -173q10 -88 10 -341v-726
q0 -210 -6 -306t-35 -185q-39 -106 -119 -186t-186 -119q-88 -28 -184 -34t-307 -7h-726q-211 1 -307 7t-184 34q-106 39 -186 119t-119 186q-29 89 -35 185t-6 306v726q0 253 10 341q10 89 40 173t110 164t186 118q88 28 184 34t307 7z" />
    <glyph glyph-name="uniE02E" unicode="&#xe02e;" 
d="M1455 1626q-203 0 -314 -107q-59 -57 -85 -165q-14 -58 -13 -122v-245h-263v-299h263v-780h301v780h271l50 299h-321v241q0 56 40 88t112 33q71 0 168 -5v266q-106 16 -209 16zM1200 1969q196 -1 379 -61t331 -171t258 -259q112 -148 172 -330q60 -183 60 -379t-60 -379
q-60 -182 -172 -330q-110 -148 -258 -259t-331 -171t-379 -61q-196 1 -379 61t-331 171t-258 259q-112 148 -172 330q-60 183 -60 379t60 379q60 182 172 330q110 148 258 259t331 171t379 61z" />
    <glyph glyph-name="uniE02F" unicode="&#xe02f;" 
d="M1496 1349q-72 -1 -112 -33t-40 -88v-241h320l-49 -299h-271v-780h-301v780h-263v299h263v245q-1 94 27 170q81 223 385 224q103 0 209 -15v-267q-97 5 -168 5z" />
    <glyph glyph-name="uniE031" unicode="&#xe031;" 
d="M550 1190q0 -185 141 -280q-77 2 -144 40v-4q1 -114 73 -202t182 -110q-41 -11 -77 -11t-66 6q29 -95 111 -157t185 -64q-173 -136 -394 -136q-38 0 -76 4q223 -142 487 -142q407 0 671 294q147 164 206 397q27 107 26 213v41q94 68 159 164q-87 -38 -183 -50
q104 62 140 176q-94 -56 -202 -77q-94 100 -229 100q-136 0 -228 -92t-92 -225q0 -37 8 -73q-196 10 -366 98t-289 234q-43 -74 -43 -144zM2400 -431h-2400v2400h2400v-2400z" />
    <glyph glyph-name="uniE032" unicode="&#xe032;" 
d="M550 1190q0 -185 141 -280q-77 2 -144 40v-4q1 -114 73 -202t182 -110q-41 -11 -77 -11t-66 6q29 -95 111 -157t185 -64q-173 -136 -394 -136q-38 0 -76 4q223 -142 487 -142q407 0 671 294q147 164 206 397q27 107 26 213v41q94 68 159 164q-87 -38 -183 -50
q104 62 140 176q-94 -56 -202 -77q-94 100 -229 100q-136 0 -228 -92t-92 -225q0 -37 8 -73q-196 10 -366 98t-289 234q-43 -74 -43 -144zM256 1969h1888q106 0 181 -75t75 -181v-1888q0 -106 -75 -181t-181 -75h-1888q-106 0 -181 75t-75 181v1888q0 106 75 181t181 75z
" />
    <glyph glyph-name="uniE033" unicode="&#xe033;" 
d="M550 1190q0 -185 141 -280q-77 2 -144 40v-4q1 -114 73 -202t182 -110q-41 -11 -77 -11t-66 6q29 -95 111 -157t185 -64q-173 -136 -394 -136q-38 0 -76 4q223 -142 487 -142q407 0 671 294q147 164 206 397q27 107 26 213v41q94 68 159 164q-87 -38 -183 -50
q104 62 140 176q-94 -56 -202 -77q-94 100 -232 100q-86 0 -159 -42q-74 -42 -116 -116q-42 -73 -42 -159q0 -37 8 -73q-196 10 -366 98t-289 234q-43 -74 -43 -144zM352 1969h1696q146 0 249 -103t103 -249v-1696q0 -146 -103 -249t-249 -103h-1696q-146 0 -249 103
t-103 249v1696q0 146 103 249t249 103z" />
    <glyph glyph-name="uniE034" unicode="&#xe034;" 
d="M550 1190q0 -185 141 -280q-77 2 -144 40v-4q1 -114 73 -202t182 -110q-41 -11 -77 -11t-66 6q29 -95 111 -157t185 -64q-173 -136 -394 -136q-38 0 -76 4q223 -142 487 -142q407 0 671 294q147 164 206 397q27 107 26 213v41q94 68 159 164q-87 -38 -183 -50
q104 62 140 176q-94 -56 -202 -77q-94 100 -232 100q-86 0 -159 -42q-74 -42 -116 -116q-42 -73 -42 -159q0 -37 8 -73q-196 10 -366 98t-289 234q-43 -74 -43 -144zM837 1969h726q211 -1 307 -7t184 -34q106 -38 186 -118t110 -164t40 -173q10 -88 10 -341v-726
q0 -210 -6 -306t-35 -185q-39 -106 -119 -186t-186 -119q-88 -28 -184 -34t-307 -7h-726q-211 1 -307 7t-184 34q-106 39 -186 119t-119 186q-29 89 -35 185t-6 306v726q0 253 10 341q10 89 40 173t110 164t186 118q88 28 184 34t307 7z" />
    <glyph glyph-name="uniE035" unicode="&#xe035;" 
d="M550 1190q0 -185 141 -280q-77 2 -144 40v-4q1 -114 73 -202t182 -110q-41 -11 -77 -11t-66 6q29 -95 111 -157t185 -64q-173 -136 -394 -136q-38 0 -76 4q223 -142 487 -142q407 0 671 294q147 164 206 397q27 107 26 213v41q94 68 159 164q-87 -38 -183 -50
q104 62 140 176q-94 -56 -202 -77q-94 100 -229 100q-136 0 -228 -92t-92 -225q0 -37 8 -73q-196 10 -366 98t-289 234q-43 -74 -43 -144zM1200 1969q196 -1 379 -61t331 -171t258 -259q112 -148 172 -330q60 -183 60 -379t-60 -379q-60 -182 -172 -330q-110 -148 -258 -259
t-331 -171t-379 -61q-196 1 -379 61t-331 171t-258 259q-112 148 -172 330q-60 183 -60 379t60 379q60 182 172 330q110 148 258 259t331 171t379 61z" />
    <glyph glyph-name="uniE036" unicode="&#xe036;" 
d="M691 910q-141 95 -141 280q0 70 43 144q119 -146 289 -234t366 -98q-8 36 -8 86t25 110t67 102q92 92 228 92q135 0 229 -100q108 21 202 77q-36 -114 -140 -176q96 12 183 50q-65 -96 -159 -164v-41q2 -209 -101 -418t-310 -347q-206 -139 -481 -139t-498 142
q38 -4 76 -4q221 0 394 136q-103 2 -185 64t-111 157q30 -6 66 -6t77 11q-110 22 -182 110t-73 202v4q67 -38 144 -40z" />
    <glyph glyph-name="uniE037" unicode="&#xe037;" 
d="M2076 235h-1752v1068h1752v-1068z" />
    <glyph glyph-name="uniE03A" unicode="&#xe03a;" 
d="M1066 536q5 0 20 -2q139 -98 184 -148q46 -50 46 -134t-78 -146t-241 -63q-161 0 -261 70t-100 180q0 55 21 91q88 140 338 150q24 1 44 2h27zM1710 1062v-207h-206v-131h206v-206h132v206h206v131h-206v207h-132zM945 1479q54 1 102 -37q97 -76 133 -222q17 -64 17 -110
t-8 -86t-38 -70t-68 -46t-91 -16t-102 37q-48 37 -81 93q-65 109 -65 222q0 112 50 174q51 61 151 61zM1404 1192q0 164 -139 281h100q13 0 17 2q107 57 165 87h-477q-142 0 -246 -30t-183 -111q-79 -83 -96 -201t36 -221t153 -148t226 -32q-25 -60 -14 -108t54 -101
l-132 -12q-220 -30 -335 -133q-84 -72 -101 -187t70 -206q135 -141 416 -134t436 150q127 114 121 278q-3 80 -39 134t-67 82q-32 28 -59 50q-27 23 -46 38q-89 65 -97 93q-16 50 14 85q31 35 57 55q110 85 138 155q28 71 28 134zM2400 -431h-2400v2400h2400v-2400z" />
    <glyph glyph-name="uniE03B" unicode="&#xe03b;" 
d="M1066 536q5 0 20 -2q139 -98 184 -148q46 -50 46 -134t-78 -146t-241 -63q-161 0 -261 70t-100 180q0 55 21 91q88 140 338 150q24 1 44 2h27zM1710 1062v-207h-206v-131h206v-206h132v206h206v131h-206v207h-132zM945 1479q54 1 102 -37q97 -76 133 -222q17 -64 17 -110
t-8 -86t-38 -70t-68 -46t-91 -16t-102 37q-48 37 -81 93q-65 109 -65 222q0 112 50 174q51 61 151 61zM1404 1192q0 164 -139 281h100q13 0 17 2q107 57 165 87h-477q-142 0 -246 -30t-183 -111q-79 -83 -96 -201t36 -221t153 -148t226 -32q-25 -60 -14 -108t54 -101
l-132 -12q-220 -30 -335 -133q-84 -72 -101 -187t70 -206q135 -141 416 -134t436 150q127 114 121 278q-3 80 -39 134t-67 82q-32 28 -59 50q-27 23 -46 38q-89 65 -97 93q-16 50 14 85q31 35 57 55q110 85 138 155q28 71 28 134zM256 1969h1888q106 0 181 -75t75 -181
v-1888q0 -106 -75 -181t-181 -75h-1888q-106 0 -181 75t-75 181v1888q0 106 75 181t181 75z" />
    <glyph glyph-name="uniE03C" unicode="&#xe03c;" 
d="M1066 536q5 0 20 -2q139 -98 184 -148q46 -50 46 -134t-78 -146t-241 -63q-161 0 -261 70t-100 180q0 55 21 91q88 140 338 150q24 1 44 2h27zM1710 1062v-207h-206v-131h206v-206h132v206h206v131h-206v207h-132zM945 1479q54 1 102 -37q97 -76 133 -222q17 -64 17 -110
t-8 -86t-38 -70t-68 -46t-91 -16t-102 37q-48 37 -81 93q-65 109 -65 222q0 112 50 174q51 61 151 61zM1404 1192q0 164 -139 281h100q13 0 17 2q107 57 165 87h-477q-142 0 -246 -30t-183 -111q-79 -83 -96 -201t36 -221t153 -148t226 -32q-25 -60 -14 -108t54 -101
l-132 -12q-220 -30 -335 -133q-84 -72 -101 -187t70 -206q135 -141 416 -134t436 150q127 114 121 278q-3 80 -39 134t-67 82q-32 28 -59 50q-27 23 -46 38q-89 65 -97 93q-16 50 14 85q31 35 57 55q110 85 138 155q28 71 28 134zM352 1969h1696q146 0 249 -103t103 -249
v-1696q0 -146 -103 -249t-249 -103h-1696q-146 0 -249 103t-103 249v1696q0 146 103 249t249 103z" />
    <glyph glyph-name="uniE03D" unicode="&#xe03d;" 
d="M1066 536q5 0 20 -2q139 -98 184 -148q46 -50 46 -134t-78 -146t-241 -63q-161 0 -261 70t-100 180q0 55 21 91q88 140 338 150q24 1 44 2h27zM1710 1062v-207h-206v-131h206v-206h132v206h206v131h-206v207h-132zM945 1479q54 1 102 -37q97 -76 133 -222q17 -64 17 -110
t-8 -86t-38 -70t-68 -46t-91 -16t-102 37q-48 37 -81 93q-65 109 -65 222q0 112 50 174q51 61 151 61zM1404 1192q0 164 -139 281h100q13 0 17 2q107 57 165 87h-477q-142 0 -246 -30t-183 -111q-79 -83 -96 -201t36 -221t153 -148t226 -32q-25 -60 -14 -108t54 -101
l-132 -12q-220 -30 -335 -133q-84 -72 -101 -187t70 -206q135 -141 416 -134t436 150q127 114 121 278q-3 80 -39 134t-67 82q-32 28 -59 50q-27 23 -46 38q-89 65 -97 93q-16 50 14 85q31 35 57 55q110 85 138 155q28 71 28 134zM837 1969h726q211 -1 307 -7t184 -34
q106 -38 186 -118t110 -164t40 -173q10 -88 10 -341v-726q0 -210 -6 -306t-35 -185q-39 -106 -119 -186t-186 -119q-88 -28 -184 -34t-307 -7h-726q-211 1 -307 7t-184 34q-106 39 -186 119t-119 186q-29 89 -35 185t-6 306v726q0 253 10 341q10 89 40 173t110 164t186 118
q88 28 184 34t307 7z" />
    <glyph glyph-name="uniE03E" unicode="&#xe03e;" 
d="M1066 536q5 0 20 -2q139 -98 184 -148q46 -50 46 -134t-78 -146t-241 -63q-161 0 -261 70t-100 180q0 55 21 91q88 140 338 150q24 1 44 2h27zM1710 1062v-207h-206v-131h206v-206h132v206h206v131h-206v207h-132zM945 1479q54 1 102 -37q97 -76 133 -222q17 -64 17 -110
t-8 -86t-38 -70t-68 -46t-91 -16t-102 37q-48 37 -81 93q-65 109 -65 222q0 112 50 174q51 61 151 61zM1404 1192q0 164 -139 281h100q13 0 17 2q107 57 165 87h-477q-142 0 -246 -30t-183 -111q-79 -83 -96 -201t36 -221t153 -148t226 -32q-25 -60 -14 -108t54 -101
l-132 -12q-220 -30 -335 -133q-84 -72 -101 -187t70 -206q135 -141 416 -134t436 150q127 114 121 278q-3 80 -39 134t-67 82q-32 28 -59 50q-27 23 -46 38q-89 65 -97 93q-16 50 14 85q31 35 57 55q110 85 138 155q28 71 28 134zM1200 1969q196 -1 379 -61t331 -171
t258 -259q112 -148 172 -330q60 -183 60 -379t-60 -379q-60 -182 -172 -330q-110 -148 -258 -259t-331 -171t-379 -61q-196 1 -379 61t-331 171t-258 259q-112 148 -172 330q-60 183 -60 379t60 379q60 182 172 330q110 148 258 259t331 171t379 61z" />
    <glyph glyph-name="uniE03F" unicode="&#xe03f;" 
d="M636 293q0 -110 100 -180t261 -70q163 1 241 63t78 146t-50 138q-50 55 -180 144q-15 2 -20 2h-27q-20 -1 -45 -2q-249 -10 -337 -150q-21 -36 -21 -91zM1842 855h206v-131h-206v-206h-132v206h-206v131h206v207h132v-207zM945 1479q-100 0 -151 -61q-50 -61 -50 -136
q0 -149 64 -259q34 -56 82 -94q49 -37 102 -37q54 0 92 16q91 39 105 117q8 39 8 85t-17 110q-36 146 -133 222q-48 38 -102 37zM1404 1192q0 -63 -21 -116q-36 -90 -156 -181q-16 -12 -46 -46t-16 -84q8 -23 38 -47q29 -24 51 -41t30 -22q6 -5 14 -13t16 -12q8 -6 16 -14
t40 -35t66 -81q36 -54 39 -134q6 -163 -121 -278q-156 -142 -436 -150q-281 -7 -416 134q-86 90 -70 206q24 168 201 254q95 47 193 60q26 4 174 18q-43 53 -54 101t14 108q-126 -13 -226 32t-153 148t-36 221t96 201q79 81 183 111t246 30h477q-58 -30 -165 -87
q-4 -2 -17 -2h-100q139 -117 139 -281z" />
    <glyph glyph-name="uniE041" unicode="&#xe041;" 
d="M634 410q-88 0 -150 -62t-62 -150t62 -149q62 -62 150 -62t149 62q62 61 62 149t-62 150q-61 62 -149 62zM435 1026v-298q148 0 283 -58q134 -58 232 -154q98 -98 156 -233t57 -283h298q0 279 -138 514t-373 374q-235 138 -515 138zM435 1555v-298q384 0 697 -211
q314 -210 462 -556q98 -231 98 -490h298q0 424 -212 786q-100 170 -244 314t-314 243q-362 212 -785 212zM2400 1968v-2400h-2400v2400h2400z" />
    <glyph glyph-name="uniE042" unicode="&#xe042;" 
d="M634 410q-88 0 -150 -62t-62 -150t62 -149q62 -62 150 -62t149 62q62 61 62 149t-62 150q-61 62 -149 62zM435 1026v-298q148 0 283 -58q134 -58 232 -154q98 -98 156 -233t57 -283h298q0 279 -138 514t-373 374q-235 138 -515 138zM435 1555v-298q384 0 697 -211
q314 -210 462 -556q98 -231 98 -490h298q0 424 -212 786q-100 170 -244 314t-314 243q-362 212 -785 212zM256 1969h1888q106 0 181 -75t75 -181v-1888q0 -106 -75 -181t-181 -75h-1888q-106 0 -181 75t-75 181v1888q0 106 75 181t181 75z" />
    <glyph glyph-name="uniE043" unicode="&#xe043;" 
d="M634 410q-88 0 -150 -62t-62 -150t62 -149q62 -62 150 -62t149 62q62 61 62 149t-62 150q-61 62 -149 62zM435 1026v-298q148 0 283 -58q134 -58 232 -154q98 -98 156 -233t57 -283h298q0 279 -138 514t-373 374q-235 138 -515 138zM435 1555v-298q384 0 697 -211
q314 -210 462 -556q98 -231 98 -490h298q0 424 -212 786q-100 170 -244 314t-314 243q-362 212 -785 212zM352 1969h1696q146 0 249 -103t103 -249v-1696q0 -146 -103 -249t-249 -103h-1696q-146 0 -249 103t-103 249v1696q0 146 103 249t249 103z" />
    <glyph glyph-name="uniE044" unicode="&#xe044;" 
d="M634 410q-88 0 -150 -62t-62 -150t62 -149q62 -62 150 -62t149 62q62 61 62 149t-62 150q-61 62 -149 62zM435 1026v-298q148 0 283 -58q134 -58 232 -154q98 -98 156 -233t57 -283h298q0 279 -138 514t-373 374q-235 138 -515 138zM435 1555v-298q384 0 697 -211
q314 -210 462 -556q98 -231 98 -490h298q0 424 -212 786q-100 170 -244 314t-314 243q-362 212 -785 212zM837 1969h726q211 -1 307 -7t184 -34q106 -38 186 -118t110 -164t40 -173q10 -88 10 -341v-726q0 -210 -6 -306t-35 -185q-39 -106 -119 -186t-186 -119
q-88 -28 -184 -34t-307 -7h-726q-211 1 -307 7t-184 34q-106 39 -186 119t-119 186q-29 89 -35 185t-6 306v726q0 253 10 341q10 89 40 173t110 164t186 118q88 28 184 34t307 7z" />
    <glyph glyph-name="uniE045" unicode="&#xe045;" 
d="M634 410q-88 0 -150 -62t-62 -150t62 -149q62 -62 150 -62t149 62q62 61 62 149t-62 150q-61 62 -149 62zM435 1026v-298q148 0 283 -58q134 -58 232 -154q98 -98 156 -233t57 -283h298q0 279 -138 514t-373 374q-235 138 -515 138zM435 1555v-298q384 0 697 -211
q314 -210 462 -556q98 -231 98 -490h298q0 424 -212 786q-100 170 -244 314t-314 243q-362 212 -785 212zM1200 1969q196 -1 379 -61t331 -171t258 -259q112 -148 172 -330q60 -183 60 -379t-60 -379q-60 -182 -172 -330q-110 -148 -258 -259t-331 -171t-379 -61
q-196 1 -379 61t-331 171t-258 259q-112 148 -172 330q-60 183 -60 379t60 379q60 182 172 330q110 148 258 259t331 171t379 61z" />
    <glyph glyph-name="uniE046" unicode="&#xe046;" 
d="M618 410q72 0 122 -28q49 -28 77 -77t28 -107t-28 -106q-28 -49 -77 -77q-48 -28 -106 -28t-106 28t-78 77q-28 50 -28 122t62 134t134 62zM435 728v298q355 0 641 -226q174 -137 280 -347q105 -211 105 -453h-298q1 148 -57 283t-156 233t-232 154q-135 58 -283 58z
M435 1257v298q423 0 785 -212q170 -99 314 -243t244 -314q212 -361 212 -786h-298q0 344 -169 631q-169 288 -457 457q-287 169 -631 169z" />
    <glyph glyph-name="uniE048" unicode="&#xe048;" 
d="M2076 235h-1752v907l876 -633l876 633v-907z" />
    <glyph glyph-name="uniE049" unicode="&#xe049;" 
d="M1200 653l-900 650h1800z" />
    <glyph glyph-name="uniE04A" unicode="&#xe04a;" 
d="M324 235h1752v907l-876 -633l-876 633v-907zM300 1303l900 -650l900 650h-1800zM2400 -431h-2400v2400h2400v-2400z" />
    <glyph glyph-name="uniE04B" unicode="&#xe04b;" 
d="M324 235h1752v907l-876 -633l-876 633v-907zM300 1303l900 -650l900 650h-1800zM256 1969h1888q106 0 181 -75t75 -181v-1888q0 -106 -75 -181t-181 -75h-1888q-106 0 -181 75t-75 181v1888q0 106 75 181t181 75z" />
    <glyph glyph-name="uniE04C" unicode="&#xe04c;" 
d="M324 235h1752v907l-876 -633l-876 633v-907zM300 1303l900 -650l900 650h-1800zM352 1969h1696q146 0 249 -103t103 -249v-1696q0 -146 -103 -249t-249 -103h-1696q-146 0 -249 103t-103 249v1696q0 146 103 249t249 103z" />
    <glyph glyph-name="uniE04D" unicode="&#xe04d;" 
d="M324 235h1752v907l-876 -633l-876 633v-907zM300 1303l900 -650l900 650h-1800zM837 1969h726q211 -1 307 -7t184 -34q106 -38 186 -118t110 -164t40 -173q10 -88 10 -341v-726q0 -210 -6 -306t-35 -185q-39 -106 -119 -186t-186 -119q-88 -28 -184 -34t-307 -7h-726
q-211 1 -307 7t-184 34q-106 39 -186 119t-119 186q-29 89 -35 185t-6 306v726q0 253 10 341q10 89 40 173t110 164t186 118q88 28 184 34t307 7z" />
    <glyph glyph-name="uniE04E" unicode="&#xe04e;" 
d="M324 235h1752v907l-876 -633l-876 633v-907zM300 1303l900 -650l900 650h-1800zM1200 1969q196 -1 379 -61t331 -171t258 -259q112 -148 172 -330q60 -183 60 -379t-60 -379q-60 -182 -172 -330q-110 -148 -258 -259t-331 -171t-379 -61q-196 1 -379 61t-331 171
t-258 259q-112 148 -172 330q-60 183 -60 379t60 379q60 182 172 330q110 148 258 259t331 171t379 61z" />
    <glyph glyph-name="uniE04F" unicode="&#xe04f;" 
d="M2076 235h-1752v907l876 -633l876 633v-907zM1200 653l-900 650h1800z" />
    <glyph glyph-name="uniE050" unicode="&#xe050;" 
d="M1200 653l900 650h-1800zM2076 235v907l-876 -633l-876 633v-907h1752zM214 1410h1972v-1282h-1972v1282z" />
    <glyph glyph-name="uniE061" unicode="&#xe061;" 
d="M1048 1369q91 1 174 -35t143 -96q59 -60 95 -143t36 -155t-12 -122t-34 -94t-52 -83q-58 -74 -150 -121t-176 -47q-85 0 -143 16t-107 45q-101 60 -162 162q-60 102 -60 209t36 190t95 143q60 60 143 96t174 35zM1048 1561q-130 -1 -248 -51t-205 -136t-137 -204
t-50 -249t50 -249t137 -204t205 -136t248 -51q201 0 365 114l381 -380q32 -33 78 -33t80 33q33 33 33 79t-33 79l-380 380q116 165 116 368q0 131 -50 249t-137 204t-205 136t-248 51zM2400 -431h-2400v2400h2400v-2400z" />
    <glyph glyph-name="uniE062" unicode="&#xe062;" 
d="M1048 1369q91 1 174 -35t143 -96q59 -60 95 -143t36 -155t-12 -122t-34 -94t-52 -83q-58 -74 -150 -121t-176 -47q-85 0 -143 16t-107 45q-101 60 -162 162q-60 102 -60 209t36 190t95 143q60 60 143 96t174 35zM1048 1561q-130 -1 -248 -51t-205 -136t-137 -204
t-50 -249t50 -249t137 -204t205 -136t248 -51q201 0 365 114l381 -380q32 -33 78 -33t80 33q33 33 33 79t-33 79l-380 380q116 165 116 368q0 131 -50 249t-137 204t-205 136t-248 51zM256 1969h1888q106 0 181 -75t75 -181v-1888q0 -106 -75 -181t-181 -75h-1888
q-106 0 -181 75t-75 181v1888q0 106 75 181t181 75z" />
    <glyph glyph-name="uniE063" unicode="&#xe063;" 
d="M1048 1369q91 1 174 -35t143 -96q59 -60 95 -143t36 -155t-12 -122t-34 -94t-52 -83q-58 -74 -150 -121t-176 -47q-85 0 -143 16t-107 45q-101 60 -162 162q-60 102 -60 209t36 190t95 143q60 60 143 96t174 35zM1048 1561q-130 -1 -248 -51t-205 -136t-137 -204
t-50 -249t50 -249t137 -204t205 -136t248 -51q201 0 365 114l381 -380q32 -33 78 -33t80 33q33 33 33 79t-33 79l-380 380q116 165 116 368q0 131 -50 249t-137 204t-205 136t-248 51zM352 1969h1696q146 0 249 -103t103 -249v-1696q0 -146 -103 -249t-249 -103h-1696
q-146 0 -249 103t-103 249v1696q0 146 103 249t249 103z" />
    <glyph glyph-name="uniE064" unicode="&#xe064;" 
d="M1048 1369q91 1 174 -35t143 -96q59 -60 95 -143t36 -155t-12 -122t-34 -94t-52 -83q-58 -74 -150 -121t-176 -47q-85 0 -143 16t-107 45q-101 60 -162 162q-60 102 -60 209t36 190t95 143q60 60 143 96t174 35zM1048 1561q-130 -1 -248 -51t-205 -136t-137 -204
t-50 -249t50 -249t137 -204t205 -136t248 -51q201 0 365 114l381 -380q32 -33 78 -33t80 33q33 33 33 79t-33 79l-380 380q116 165 116 368q0 131 -50 249t-137 204t-205 136t-248 51zM837 1969h726q211 -1 307 -7t184 -34q106 -38 186 -118t110 -164t40 -173
q10 -88 10 -341v-726q0 -210 -6 -306t-35 -185q-39 -106 -119 -186t-186 -119q-88 -28 -184 -34t-307 -7h-726q-211 1 -307 7t-184 34q-106 39 -186 119t-119 186q-29 89 -35 185t-6 306v726q0 253 10 341q10 89 40 173t110 164t186 118q88 28 184 34t307 7z" />
    <glyph glyph-name="uniE065" unicode="&#xe065;" 
d="M1048 1369q91 1 174 -35t143 -96q59 -60 95 -143t36 -155t-12 -122t-34 -94t-52 -83q-58 -74 -150 -121t-176 -47q-85 0 -143 16t-107 45q-101 60 -162 162q-60 102 -60 209t36 190t95 143q60 60 143 96t174 35zM1048 1561q-130 -1 -248 -51t-205 -136t-137 -204
t-50 -249t50 -249t137 -204t205 -136t248 -51q201 0 365 114l381 -380q32 -33 78 -33t80 33q33 33 33 79t-33 79l-380 380q116 165 116 368q0 131 -50 249t-137 204t-205 136t-248 51zM1200 1969q196 -1 379 -61t331 -171t258 -259q112 -148 172 -330q60 -183 60 -379
t-60 -379q-60 -182 -172 -330q-110 -148 -258 -259t-331 -171t-379 -61q-196 1 -379 61t-331 171t-258 259q-112 148 -172 330q-60 183 -60 379t60 379q60 182 172 330q110 148 258 259t331 171t379 61z" />
    <glyph glyph-name="uniE066" unicode="&#xe066;" 
d="M1048 1369q-91 1 -174 -35t-143 -96q-59 -60 -95 -143t-36 -174t36 -174t95 -143q60 -60 143 -96t174 -35q91 -1 174 35t143 96q59 60 95 143t36 174t-36 174t-95 143q-60 60 -143 96t-174 35zM1048 1561q130 -1 248 -51t205 -136t137 -204t50 -249q0 -202 -116 -368
l380 -380q33 -33 33 -79t-33 -79q-34 -33 -80 -33t-78 33l-381 380q-164 -114 -365 -114q-130 1 -248 51t-205 136t-137 204t-50 249t50 249t137 204t205 136t248 51z" />
    <glyph glyph-name="uniE067" unicode="&#xe067;" 
d="M1048 1369q122 0 225 -60t163 -163t60 -225t-60 -225t-163 -163t-225 -60t-225 60t-163 163t-60 225t60 225t163 163t225 60z" />
    <glyph glyph-name="uniE068" unicode="&#xe068;" 
d="M1170 1254q-4 16 -52 28t-103 7q-109 -10 -203 -96t-109 -192q-16 -107 19 -145q22 -24 36 -9t20 65q4 50 30 114q47 114 142 170t196 48q25 -2 24 10zM1048 1361q122 0 225 -60t163 -163t60 -225t-60 -225t-163 -163t-225 -60t-225 60t-163 163t-60 225t60 225t163 163
t225 60z" />
    <glyph glyph-name="uniE069" unicode="&#xe069;" 
d="M1127 1282q37 -10 41 -22t-5 -15q-9 -1 -37 1t-76 -8q-102 -22 -182 -111q-80 -88 -93 -241q-4 -40 -27 -42q-25 -2 -41 38t-4 121t79 159t161 112q94 32 184 8z" />
    <glyph glyph-name="uniE06A" unicode="&#xe06a;" 
d="M1017 1441v-488h-488v-368h488v-488h368v488h488v368h-488v488h-368zM2400 -431h-2400v2400h2400v-2400z" />
    <glyph glyph-name="uniE06B" unicode="&#xe06b;" 
d="M1017 1441v-488h-488v-368h488v-488h368v488h488v368h-488v488h-368zM256 1969h1888q106 0 181 -75t75 -181v-1888q0 -106 -75 -181t-181 -75h-1888q-106 0 -181 75t-75 181v1888q0 106 75 181t181 75z" />
    <glyph glyph-name="uniE06C" unicode="&#xe06c;" 
d="M1017 1441v-488h-488v-368h488v-488h368v488h488v368h-488v488h-368zM352 1969h1696q146 0 249 -103t103 -249v-1696q0 -146 -103 -249t-249 -103h-1696q-146 0 -249 103t-103 249v1696q0 146 103 249t249 103z" />
    <glyph glyph-name="uniE06D" unicode="&#xe06d;" 
d="M1017 1441v-488h-488v-368h488v-488h368v488h488v368h-488v488h-368zM837 1969h726q211 -1 307 -7t184 -34q106 -38 186 -118t110 -164t40 -173q10 -88 10 -341v-726q0 -210 -6 -306t-35 -185q-39 -106 -119 -186t-186 -119q-88 -28 -184 -34t-307 -7h-726q-211 1 -307 7
t-184 34q-106 39 -186 119t-119 186q-29 89 -35 185t-6 306v726q0 253 10 341q10 89 40 173t110 164t186 118q88 28 184 34t307 7z" />
    <glyph glyph-name="uniE06E" unicode="&#xe06e;" 
d="M1017 1441v-488h-488v-368h488v-488h368v488h488v368h-488v488h-368zM1200 1969q196 -1 379 -61t331 -171t258 -259q112 -148 172 -330q60 -183 60 -379t-60 -379q-60 -182 -172 -330q-110 -148 -258 -259t-331 -171t-379 -61q-196 1 -379 61t-331 171t-258 259
q-112 148 -172 330q-60 183 -60 379t60 379q60 182 172 330q110 148 258 259t331 171t379 61z" />
    <glyph glyph-name="uniE06F" unicode="&#xe06f;" 
d="M1385 953h488v-368h-488v-488h-368v488h-488v368h488v488h368v-488z" />
    <glyph glyph-name="uniE071" unicode="&#xe071;" 
d="M1551 714h-702l351 521zM335 254l204 1l196 291h930l196 -291l204 -1l-865 1282zM2400 -431h-2400v2400h2400v-2400z" />
    <glyph glyph-name="uniE072" unicode="&#xe072;" 
d="M1200 1235l351 -521h-702zM1200 1536l-865 -1282l204 1l196 291h930l196 -291l204 -1zM256 1969h1888q106 0 181 -75t75 -181v-1888q0 -106 -75 -181t-181 -75h-1888q-106 0 -181 75t-75 181v1888q0 106 75 181t181 75z" />
    <glyph glyph-name="uniE073" unicode="&#xe073;" 
d="M1200 1235l351 -521h-702zM1200 1536l-865 -1282l204 1l196 291h930l196 -291l204 -1zM352 1969h1696q146 0 249 -103t103 -249v-1696q0 -146 -103 -249t-249 -103h-1696q-146 0 -249 103t-103 249v1696q0 146 103 249t249 103z" />
    <glyph glyph-name="uniE074" unicode="&#xe074;" 
d="M1200 1235l351 -521h-702zM1200 1536l-865 -1282l204 1l196 291h930l196 -291l204 -1zM837 1969h726q211 -1 307 -7t184 -34q106 -38 186 -118t110 -164t40 -173q10 -88 10 -341v-726q0 -210 -6 -306t-35 -185q-39 -106 -119 -186t-186 -119q-88 -28 -184 -34t-307 -7
h-726q-211 1 -307 7t-184 34q-106 39 -186 119t-119 186q-29 89 -35 185t-6 306v726q0 253 10 341q10 89 40 173t110 164t186 118q88 28 184 34t307 7z" />
    <glyph glyph-name="uniE075" unicode="&#xe075;" 
d="M1200 1235l351 -521h-702zM1200 1536l-865 -1282l204 1l196 291h930l196 -291l204 -1zM1200 1969q196 -1 379 -61t331 -171t258 -259q112 -148 172 -330q60 -183 60 -379t-60 -379q-60 -182 -172 -330q-110 -148 -258 -259t-331 -171t-379 -61q-196 1 -379 61t-331 171
t-258 259q-112 148 -172 330q-60 183 -60 379t60 379q60 182 172 330q110 148 258 259t331 171t379 61z" />
    <glyph glyph-name="uniE076" unicode="&#xe076;" 
d="M1200 1235l-351 -521h702zM1200 1536l865 -1282l-204 1l-196 291h-930l-196 -291l-204 -1z" />
    <glyph glyph-name="uniE078" unicode="&#xe078;" horiz-adv-x="3040" 
d="M1242 -378q-471 0 -807 304q-13 12 -5 22t23 2q365 -212 798 -212q315 0 609 125q23 9 35 -9t-9 -33q-130 -95 -306 -147t-338 -52zM1976 -17q48 -7 56 -17t9 -26q1 -17 -2 -40q-6 -45 -32 -107t-72 -100q-11 -9 -19 -5t-3 16q69 172 47 202t-207 6q-13 0 -15 8t11 16
q46 34 113 44q66 10 114 3zM1371 163q0 -68 64 -68q34 0 54 35t21 58q1 24 1 49v21q-140 0 -140 -95zM137 163q0 -68 65 -68q34 0 54 37t21 65v61q-140 0 -140 -95zM2295 262q0 -166 75 -166t75 164q0 84 -15 128q-14 47 -61 47q-74 0 -74 -154v-19zM1757 507q0 17 18 17
h309q18 0 18 -17v-59q0 -12 -23 -44l-161 -229q105 3 177 -37q14 -9 16 -27v-74q0 -8 -7 -14t-16 -2q-73 39 -159 40t-167 -40q-8 -5 -15 1t-7 15v70q0 30 11 47l186 266h-162q-18 0 -18 18v69zM3040 326v-304q0 -15 -18 -15h-94q-15 1 -17 15v298q0 94 -59 94
q-69 0 -69 -130v-260q0 -17 -19 -17h-93q-17 0 -17 17v483q0 16 18 16h87q14 -1 17 -14v-73h1q41 97 122 97t116 -57q25 -38 25 -150zM2360 533q111 0 167 -78t56 -192q0 -115 -59 -191t-157 -76q-99 0 -155 76t-56 174q0 96 24 156t74 96q48 36 106 35zM712 413
q-65 0 -65 -105v-284q0 -17 -18 -17h-94q-15 0 -17 16v483q0 17 18 17h88q17 0 17 -16v-63h2q33 89 120 89t126 -89q32 89 130 89q133 0 133 -152v-52l-1 -305q0 -17 -18 -17h-94q-17 0 -17 17v256q0 79 -2 90q-9 42 -52 42t-56 -31t-13 -101v-256q0 -17 -18 -17h-94
q-17 0 -17 17v256l1 44q0 89 -59 89zM1511 366q0 72 -65 72q-39 0 -55 -19q-15 -19 -19 -37t-17 -18l-92 10q-17 4 -14 20q23 108 143 136q32 8 62 8q136 0 171 -78q3 -10 7 -16t6 -18t2 -18q2 -9 3 -38v-188q-1 -22 3 -31t6 -13t7 -15q6 -10 12 -18t12 -17q6 -10 -16 -28
t-61 -52q-23 -20 -68 48q-7 10 -9 12q-38 -40 -71 -54q-34 -14 -90 -14t-96 38t-39 101q0 134 132 173q17 5 39 8t34 5q14 3 40 5t33 3v33zM277 372q0 66 -64 66t-76 -57q-3 -16 -16 -17l-91 10q-17 4 -12 32q4 28 26 56q22 30 67 53t99 23q144 0 182 -78q4 -10 7 -16t5 -18
l3 -18t1 -20t2 -18v-21t-1 -20v-147q0 -40 17 -61t23 -32q7 -10 -4 -19q-34 -28 -73 -62q-22 -20 -67 48q-7 10 -9 12q-39 -40 -72 -54t-89 -14q-55 0 -95 38t-40 101q0 134 132 173q16 5 38 8t35 5q13 3 39 5t33 3v39z" />
    <glyph glyph-name="uniE079" unicode="&#xe079;" 
d="M1337 939q-181 0 -256 -59t-75 -165q0 -73 36 -117t91 -45q106 0 163 102q36 66 39 119q2 52 2 64v101zM1216 1602q93 0 185 -27q131 -39 203 -147q10 -14 18 -36t12 -36t8 -40t6 -38q4 -30 3 -82v-435q0 -48 8 -72q7 -24 11 -35q7 -22 49 -79q41 -56 15 -80
q-80 -67 -171 -148q-24 -20 -53 -5q-63 54 -85 85q-21 31 -29 43l-14 21q-92 -93 -170 -127t-174 -35q-169 0 -263 88q-95 88 -95 261q0 172 114 282q102 98 290 127q84 13 161 21t92 10v29q1 3 1 22v25t-2 24q0 16 -2 24t-4 22t-8 24q-37 77 -133 78q-95 0 -147 -60
q-26 -30 -35 -71q-8 -41 -40 -44l-216 24q-17 3 -27 15t-7 31q37 179 189 269q122 72 310 72z" />
    <glyph glyph-name="uniE07A" unicode="&#xe07a;" 
d="M400 308q0 -10 7 -19q158 -179 360 -276t400 -97q199 0 373 63t300 180q13 15 13 29t-12 22t-26 0q-131 -69 -297 -108t-338 -39t-382 69q-212 69 -373 186q-9 7 -17 3q-8 -3 -8 -13zM1887 350q-103 1 -176 -56q-13 -8 -11 -18t15 -9q189 25 213 -7t-47 -226
q-5 -13 3 -17q8 -5 28 13t42 56t34 74q12 37 20 72q14 73 -3 95q-15 22 -118 23zM1337 939v-113q0 -97 -34 -158q-64 -115 -162 -115q-63 1 -99 45t-36 108t20 105q36 75 119 101q83 27 192 27zM1229 1602q-79 0 -141 -10q-139 -23 -240 -102t-131 -229q-3 -19 7 -31t27 -15
l216 -24q14 1 25 13t14 28q12 66 62 100t102 34q115 0 152 -78q6 -10 8 -24t4 -22t2 -24t2 -24v-25t-1 -22v-29q-15 -2 -78 -8q-91 -9 -181 -24q-90 -14 -160 -46q-110 -47 -174 -140q-64 -92 -64 -200q0 -194 95 -283q95 -88 226 -88q133 1 211 35t170 127l14 -21l12 -18
t12 -17q8 -10 14 -17q25 -32 76 -76q29 -15 53 5q91 81 171 148q25 23 1 59q-57 76 -62 93l-14 42t-8 72v435q0 113 -11 143q-10 31 -18 53t-18 36q-71 109 -203 147q-92 27 -172 27zM2400 -431h-2400v2400h2400v-2400z" />
    <glyph glyph-name="uniE07B" unicode="&#xe07b;" 
d="M400 308q0 -10 7 -19q158 -179 360 -276t400 -97q199 0 373 63t300 180q13 15 13 29t-12 22t-26 0q-131 -69 -297 -108t-338 -39t-382 69q-212 69 -373 186q-9 7 -17 3q-8 -3 -8 -13zM1887 350q-103 1 -176 -56q-13 -8 -11 -18t15 -9q189 25 213 -7t-47 -226
q-5 -13 3 -17q8 -5 28 13t42 56t34 74q12 37 20 72q14 73 -3 95q-15 22 -118 23zM1337 939v-113q0 -97 -34 -158q-64 -115 -162 -115q-63 1 -99 45t-36 108t20 105q36 75 119 101q83 27 192 27zM1229 1602q-79 0 -141 -10q-139 -23 -240 -102t-131 -229q-3 -19 7 -31t27 -15
l216 -24q14 1 25 13t14 28q12 66 62 100t102 34q115 0 152 -78q6 -10 8 -24t4 -22t2 -24t2 -24v-25t-1 -22v-29q-15 -2 -78 -8q-91 -9 -181 -24q-90 -14 -160 -46q-110 -47 -174 -140q-64 -92 -64 -200q0 -194 95 -283q95 -88 226 -88q133 1 211 35t170 127l14 -21l12 -18
t12 -17q8 -10 14 -17q25 -32 76 -76q29 -15 53 5q91 81 171 148q25 23 1 59q-57 76 -62 93l-14 42t-8 72v435q0 113 -11 143q-10 31 -18 53t-18 36q-71 109 -203 147q-92 27 -172 27zM256 1969h1888q106 0 181 -75t75 -181v-1888q0 -106 -75 -181t-181 -75h-1888
q-106 0 -181 75t-75 181v1888q0 106 75 181t181 75z" />
    <glyph glyph-name="uniE07C" unicode="&#xe07c;" 
d="M400 308q0 -10 7 -19q158 -179 360 -276t400 -97q199 0 373 63t300 180q13 15 13 29t-12 22t-26 0q-131 -69 -297 -108t-338 -39t-382 69q-212 69 -373 186q-9 7 -17 3q-8 -3 -8 -13zM1887 350q-103 1 -176 -56q-13 -8 -11 -18t15 -9q189 25 213 -7t-47 -226
q-5 -13 3 -17q8 -5 28 13t42 56t34 74q12 37 20 72q14 73 -3 95q-15 22 -118 23zM1337 939v-113q0 -97 -34 -158q-64 -115 -162 -115q-63 1 -99 45t-36 108t20 105q36 75 119 101q83 27 192 27zM1229 1602q-79 0 -141 -10q-139 -23 -240 -102t-131 -229q-3 -19 7 -31t27 -15
l216 -24q14 1 25 13t14 28q12 66 62 100t102 34q115 0 152 -78q6 -10 8 -24t4 -22t2 -24t2 -24v-25t-1 -22v-29q-15 -2 -78 -8q-91 -9 -181 -24q-90 -14 -160 -46q-110 -47 -174 -140q-64 -92 -64 -200q0 -194 95 -283q95 -88 226 -88q133 1 211 35t170 127l14 -21l12 -18
t12 -17q8 -10 14 -17q25 -32 76 -76q29 -15 53 5q91 81 171 148q25 23 1 59q-57 76 -62 93l-14 42t-8 72v435q0 113 -11 143q-10 31 -18 53t-18 36q-71 109 -203 147q-92 27 -172 27zM352 1969h1696q146 0 249 -103t103 -249v-1696q0 -146 -103 -249t-249 -103h-1696
q-146 0 -249 103t-103 249v1696q0 146 103 249t249 103z" />
    <glyph glyph-name="uniE07D" unicode="&#xe07d;" 
d="M400 308q0 -10 7 -19q158 -179 360 -276t400 -97q199 0 373 63t300 180q13 15 13 29t-12 22t-26 0q-131 -69 -297 -108t-338 -39t-382 69q-212 69 -373 186q-9 7 -17 3q-8 -3 -8 -13zM1887 350q-103 1 -176 -56q-13 -8 -11 -18t15 -9q189 25 213 -7t-47 -226
q-5 -13 3 -17q8 -5 28 13t42 56t34 74q12 37 20 72q14 73 -3 95q-15 22 -118 23zM1337 939v-113q0 -97 -34 -158q-64 -115 -162 -115q-63 1 -99 45t-36 108t20 105q36 75 119 101q83 27 192 27zM1229 1602q-79 0 -141 -10q-139 -23 -240 -102t-131 -229q-3 -19 7 -31t27 -15
l216 -24q14 1 25 13t14 28q12 66 62 100t102 34q115 0 152 -78q6 -10 8 -24t4 -22t2 -24t2 -24v-25t-1 -22v-29q-15 -2 -78 -8q-91 -9 -181 -24q-90 -14 -160 -46q-110 -47 -174 -140q-64 -92 -64 -200q0 -194 95 -283q95 -88 226 -88q133 1 211 35t170 127l14 -21l12 -18
t12 -17q8 -10 14 -17q25 -32 76 -76q29 -15 53 5q91 81 171 148q25 23 1 59q-57 76 -62 93l-14 42t-8 72v435q0 113 -11 143q-10 31 -18 53t-18 36q-71 109 -203 147q-92 27 -172 27zM837 1969h726q211 -1 307 -7t184 -34q106 -38 186 -118t110 -164t40 -173q10 -88 10 -341
v-726q0 -210 -6 -306t-35 -185q-39 -106 -119 -186t-186 -119q-88 -28 -184 -34t-307 -7h-726q-211 1 -307 7t-184 34q-106 39 -186 119t-119 186q-29 89 -35 185t-6 306v726q0 253 10 341q10 89 40 173t110 164t186 118q88 28 184 34t307 7z" />
    <glyph glyph-name="uniE07E" unicode="&#xe07e;" 
d="M400 308q0 -10 7 -19q158 -179 360 -276t400 -97q199 0 373 63t300 180q13 15 13 29t-12 22t-26 0q-131 -69 -297 -108t-338 -39t-382 69q-212 69 -373 186q-9 7 -17 3q-8 -3 -8 -13zM1887 350q-103 1 -176 -56q-13 -8 -11 -18t15 -9q189 25 213 -7t-47 -226
q-5 -13 3 -17q8 -5 28 13t42 56t34 74q12 37 20 72q14 73 -3 95q-15 22 -118 23zM1337 939v-113q0 -97 -34 -158q-64 -115 -162 -115q-63 1 -99 45t-36 108t20 105q36 75 119 101q83 27 192 27zM1229 1602q-79 0 -141 -10q-139 -23 -240 -102t-131 -229q-3 -19 7 -31t27 -15
l216 -24q14 1 25 13t14 28q12 66 62 100t102 34q115 0 152 -78q6 -10 8 -24t4 -22t2 -24t2 -24v-25t-1 -22v-29q-15 -2 -78 -8q-91 -9 -181 -24q-90 -14 -160 -46q-110 -47 -174 -140q-64 -92 -64 -200q0 -194 95 -283q95 -88 226 -88q133 1 211 35t170 127l14 -21l12 -18
t12 -17q8 -10 14 -17q25 -32 76 -76q29 -15 53 5q91 81 171 148q25 23 1 59q-57 76 -62 93l-14 42t-8 72v435q0 113 -11 143q-10 31 -18 53t-18 36q-71 109 -203 147q-92 27 -172 27zM1200 1969q196 -1 379 -61t331 -171t258 -259q112 -148 172 -330q60 -183 60 -379
t-60 -379q-60 -182 -172 -330q-110 -148 -258 -259t-331 -171t-379 -61q-196 1 -379 61t-331 171t-258 259q-112 148 -172 330q-60 183 -60 379t60 379q60 182 172 330q110 148 258 259t331 171t379 61z" />
    <glyph glyph-name="uniE07F" unicode="&#xe07f;" 
d="M1195 -84q-226 0 -428 97t-360 276q-7 9 -7 19t8 13q8 4 17 -3q161 -117 373 -186t409 -69q199 0 413 67q108 34 195 80q14 8 26 0t12 -22t-13 -29q-171 -159 -420 -217q-114 -26 -225 -26zM1912 30q-20 -18 -28 -13q-8 4 -3 17q71 194 47 226t-213 7q-13 -1 -15 9t23 28
t75 32t121 13t92 -30q22 -29 -15 -137q-36 -109 -84 -152zM1337 939q-181 0 -256 -59t-75 -165q0 -73 36 -117t91 -45q106 0 163 102q36 66 39 119q2 52 2 64v101zM1216 1602q93 0 185 -27q131 -39 203 -147q10 -14 18 -36t12 -36t8 -40t6 -38q4 -30 3 -82v-435q0 -48 8 -72
q7 -24 11 -35q7 -22 49 -79q41 -56 15 -80q-80 -67 -171 -148q-24 -20 -53 -5q-63 54 -85 85q-21 31 -29 43l-14 21q-92 -93 -170 -127t-174 -35q-169 0 -263 88q-95 88 -95 261q0 172 114 282q102 98 290 127q84 13 161 21t92 10v29q1 3 1 22v25t-2 24q0 16 -2 24t-4 22
t-8 24q-37 77 -133 78q-95 0 -147 -60q-26 -30 -35 -71q-8 -41 -40 -44l-216 24q-17 3 -27 15t-7 31q37 179 189 269q122 72 310 72z" />
    <glyph glyph-name="uniE080" unicode="&#xe080;" 
d="M1195 -84q-226 0 -428 97t-360 276q-7 9 -7 19t8 13q8 4 17 -3q161 -117 373 -186t409 -69q199 0 413 67q108 34 195 80q14 8 26 0t12 -22t-13 -29q-171 -159 -420 -217q-114 -26 -225 -26zM1954 86q-22 -38 -42 -56t-28 -13q-8 4 -3 17q71 194 47 226t-213 7
q-13 -1 -15 9t20 25q20 15 60 29t75 17q36 3 69 1t55 -9t28 -15q7 -8 7 -32t-6 -60q-6 -35 -20 -72q-12 -36 -34 -74z" />
    <glyph glyph-name="uniE081" unicode="&#xe081;" 
d="M699 1057v-720q0 -79 64 -115q30 -17 68 -17h69v-249q0 -46 32 -78t79 -33q47 1 79 33t32 78v249h156v-249q0 -46 32 -78t79 -33q47 1 79 33t32 78v249h75q58 0 95 37t37 95v720h-1008zM1866 1081q-46 -1 -78 -33t-33 -78v-474q1 -46 33 -78t78 -33q46 1 78 33t33 78v474
q-1 46 -33 78t-78 33zM532 1081q-38 -1 -70 -33t-33 -78v-474q1 -46 33 -78t78 -33q46 1 78 33t33 78v474q1 63 -55 96q-26 15 -64 15zM1418 1398q24 0 42 -18t18 -42t-18 -42t-42 -18t-42 18t-18 42t18 42t42 18zM988 1398q18 0 36 -18t18 -42t-18 -42t-42 -18t-42 18
t-18 36t4 29t14 19q8 8 19 13t29 5zM1200 1575q-107 0 -206 -41l-81 146q-14 25 -39 11t-11 -38l79 -144q-112 -61 -179 -165t-67 -231l1014 1q0 126 -69 230t-183 166l79 143q7 9 3 21t-22 22t-31 -16l-81 -146q-99 41 -206 41zM2400 -431h-2400v2400h2400v-2400z" />
    <glyph glyph-name="uniE082" unicode="&#xe082;" 
d="M699 1057v-720q0 -79 64 -115q30 -17 68 -17h69v-249q0 -46 32 -78t79 -33q47 1 79 33t32 78v249h156v-249q0 -46 32 -78t79 -33q47 1 79 33t32 78v249h75q58 0 95 37t37 95v720h-1008zM1866 1081q-46 -1 -78 -33t-33 -78v-474q1 -46 33 -78t78 -33q46 1 78 33t33 78v474
q-1 46 -33 78t-78 33zM532 1081q-38 -1 -70 -33t-33 -78v-474q1 -46 33 -78t78 -33q46 1 78 33t33 78v474q1 63 -55 96q-26 15 -64 15zM1418 1398q24 0 42 -18t18 -42t-18 -42t-42 -18t-42 18t-18 42t18 42t42 18zM988 1398q18 0 36 -18t18 -42t-18 -42t-42 -18t-42 18
t-18 36t4 29t14 19q8 8 19 13t29 5zM1200 1575q-107 0 -206 -41l-81 146q-14 25 -39 11t-11 -38l79 -144q-112 -61 -179 -165t-67 -231l1014 1q0 126 -69 230t-183 166l79 143q7 9 3 21t-22 22t-31 -16l-81 -146q-99 41 -206 41zM256 1969h1888q106 0 181 -75t75 -181v-1888
q0 -106 -75 -181t-181 -75h-1888q-106 0 -181 75t-75 181v1888q0 106 75 181t181 75z" />
    <glyph glyph-name="uniE083" unicode="&#xe083;" 
d="M699 1057v-720q0 -79 64 -115q30 -17 68 -17h69v-249q0 -46 32 -78t79 -33q47 1 79 33t32 78v249h156v-249q0 -46 32 -78t79 -33q47 1 79 33t32 78v249h75q58 0 95 37t37 95v720h-1008zM1866 1081q-46 -1 -78 -33t-33 -78v-474q1 -46 33 -78t78 -33q46 1 78 33t33 78v474
q-1 46 -33 78t-78 33zM532 1081q-38 -1 -70 -33t-33 -78v-474q1 -46 33 -78t78 -33q46 1 78 33t33 78v474q1 63 -55 96q-26 15 -64 15zM1418 1398q24 0 42 -18t18 -42t-18 -42t-42 -18t-42 18t-18 42t18 42t42 18zM988 1398q18 0 36 -18t18 -42t-18 -42t-42 -18t-42 18
t-18 36t4 29t14 19q8 8 19 13t29 5zM1200 1575q-107 0 -206 -41l-81 146q-14 25 -39 11t-11 -38l79 -144q-112 -61 -179 -165t-67 -231l1014 1q0 126 -69 230t-183 166l79 143q7 9 3 21t-22 22t-31 -16l-81 -146q-99 41 -206 41zM352 1969h1696q146 0 249 -103t103 -249
v-1696q0 -146 -103 -249t-249 -103h-1696q-146 0 -249 103t-103 249v1696q0 146 103 249t249 103z" />
    <glyph glyph-name="uniE084" unicode="&#xe084;" 
d="M699 1057v-720q0 -79 64 -115q30 -17 68 -17h69v-249q0 -46 32 -78t79 -33q47 1 79 33t32 78v249h156v-249q0 -46 32 -78t79 -33q47 1 79 33t32 78v249h75q58 0 95 37t37 95v720h-1008zM1866 1081q-46 -1 -78 -33t-33 -78v-474q1 -46 33 -78t78 -33q46 1 78 33t33 78v474
q-1 46 -33 78t-78 33zM532 1081q-38 -1 -70 -33t-33 -78v-474q1 -46 33 -78t78 -33q46 1 78 33t33 78v474q1 63 -55 96q-26 15 -64 15zM1418 1398q24 0 42 -18t18 -42t-18 -42t-42 -18t-42 18t-18 42t18 42t42 18zM988 1398q18 0 36 -18t18 -42t-18 -42t-42 -18t-42 18
t-18 36t4 29t14 19q8 8 19 13t29 5zM1200 1575q-107 0 -206 -41l-81 146q-14 25 -39 11t-11 -38l79 -144q-112 -61 -179 -165t-67 -231l1014 1q0 126 -69 230t-183 166l79 143q7 9 3 21t-22 22t-31 -16l-81 -146q-99 41 -206 41zM837 1969h726q211 -1 307 -7t184 -34
q106 -38 186 -118t110 -164t40 -173q10 -88 10 -341v-726q0 -210 -6 -306t-35 -185q-39 -106 -119 -186t-186 -119q-88 -28 -184 -34t-307 -7h-726q-211 1 -307 7t-184 34q-106 39 -186 119t-119 186q-29 89 -35 185t-6 306v726q0 253 10 341q10 89 40 173t110 164t186 118
q88 28 184 34t307 7z" />
    <glyph glyph-name="uniE085" unicode="&#xe085;" 
d="M699 1057v-720q0 -79 64 -115q30 -17 68 -17h69v-249q0 -46 32 -78t79 -33q47 1 79 33t32 78v249h156v-249q0 -46 32 -78t79 -33q47 1 79 33t32 78v249h75q58 0 95 37t37 95v720h-1008zM1866 1081q-46 -1 -78 -33t-33 -78v-474q1 -46 33 -78t78 -33q46 1 78 33t33 78v474
q-1 46 -33 78t-78 33zM532 1081q-38 -1 -70 -33t-33 -78v-474q1 -46 33 -78t78 -33q46 1 78 33t33 78v474q1 63 -55 96q-26 15 -64 15zM1418 1398q24 0 42 -18t18 -42t-18 -42t-42 -18t-42 18t-18 42t18 42t42 18zM988 1398q18 0 36 -18t18 -42t-18 -42t-42 -18t-42 18
t-18 36t4 29t14 19q8 8 19 13t29 5zM1200 1575q-107 0 -206 -41l-81 146q-14 25 -39 11t-11 -38l79 -144q-112 -61 -179 -165t-67 -231l1014 1q0 126 -69 230t-183 166l79 143q7 9 3 21t-22 22t-31 -16l-81 -146q-99 41 -206 41zM1200 1969q196 -1 379 -61t331 -171
t258 -259q112 -148 172 -330q60 -183 60 -379t-60 -379q-60 -182 -172 -330q-110 -148 -258 -259t-331 -171t-379 -61q-196 1 -379 61t-331 171t-258 259q-112 148 -172 330q-60 183 -60 379t60 379q60 182 172 330q110 148 258 259t331 171t379 61z" />
    <glyph glyph-name="uniE086" unicode="&#xe086;" 
d="M1707 1057v-720q0 -58 -37 -95t-95 -37h-75v-249q0 -46 -32 -78t-79 -33q-47 1 -79 33t-32 78v249h-156v-249q0 -46 -32 -78t-79 -33q-47 1 -79 33t-32 78v249h-69q-58 0 -95 37t-37 95v720h1008zM1866 1081q46 -1 78 -33t33 -78v-474q-1 -46 -33 -78t-78 -33
q-46 1 -78 33t-33 78v474q1 46 33 78t78 33zM540 1081q46 -1 78 -33t33 -78v-474q-1 -46 -33 -78t-78 -33q-46 1 -78 33t-33 78v474q1 46 33 78t78 33zM1418 1398q-24 0 -42 -18t-18 -42t18 -42t42 -18t42 18t18 42t-18 42t-42 18zM982 1398q-24 0 -42 -18t-18 -36
q0 -30 18 -48t42 -18t42 18t18 42t-18 42t-42 18zM1200 1575q107 0 206 -41l81 146q14 25 39 11t11 -38l-79 -143q114 -62 183 -166t69 -230l-1014 -1q0 127 67 231t179 165l-79 144q-7 9 -3 21t22 22t31 -16l81 -146q99 41 206 41z" />
    <glyph glyph-name="uniE087" unicode="&#xe087;" 
d="M1418 1402q28 0 46 -18t18 -46t-18 -46t-46 -18t-46 18t-18 46t18 46t46 18zM982 1402q28 0 46 -18t18 -46t-18 -46t-46 -18t-46 18t-18 46t18 46t46 18z" />
    <glyph glyph-name="uniE088" unicode="&#xe088;" horiz-adv-x="3040" 
d="M1371 163q0 -68 64 -68q34 0 54 35t21 58q1 24 1 49v21q-140 0 -140 -95zM137 163q0 -68 65 -68q34 0 54 37t21 65v61q-140 0 -140 -95zM2295 262q0 -166 75 -166t75 164q0 84 -15 128q-14 47 -61 47q-74 0 -74 -154v-19zM1757 507q0 17 18 17h309q18 0 18 -17v-59
q0 -12 -23 -44l-161 -229q105 3 177 -37q14 -9 16 -27v-74q0 -8 -7 -14t-16 -2q-73 39 -159 40t-167 -40q-8 -5 -15 1t-7 15v70q0 30 11 47l186 266h-162q-18 0 -18 18v69zM3040 326v-304q-2 -15 -18 -15h-94q-15 1 -17 15v298q0 94 -59 94q-69 0 -69 -130v-260
q0 -17 -19 -17h-93q-17 0 -17 17v483q0 16 18 16h87q14 -1 17 -14v-73h1q41 97 122 97t116 -57q25 -38 25 -150zM2360 533q111 0 167 -78t56 -192q0 -115 -59 -191t-157 -76q-99 0 -155 76t-56 174q0 96 24 156t74 96q48 36 106 35zM712 413q-65 0 -65 -105v-284
q0 -17 -18 -17h-94q-15 0 -17 16v483q0 17 18 17h88q17 0 17 -16v-63h2q33 89 120 89t126 -89q34 89 130 89q133 0 133 -152v-52l-1 -305q0 -17 -18 -17h-94q-17 0 -17 17v256q0 79 -2 90q-9 42 -52 42t-56 -31t-13 -101v-256q0 -17 -18 -17h-94q-17 0 -17 17v256l1 44
q0 89 -59 89zM1511 366q0 72 -65 72q-39 0 -55 -19q-15 -19 -19 -37t-17 -18l-92 10q-17 4 -14 20q23 108 143 136q32 8 62 8q136 0 171 -78q3 -10 7 -16t6 -18t2 -18q2 -9 3 -38v-188q-1 -22 3 -31t6 -13t7 -15q6 -10 12 -18t12 -17q6 -10 -16 -28t-61 -52q-23 -20 -68 48
q-7 10 -9 12q-38 -40 -71 -54q-34 -14 -90 -14t-96 38t-39 101q0 134 132 173q17 5 39 8t34 5q14 3 40 5t33 3v33zM277 372q0 66 -64 66t-76 -57q-3 -16 -16 -17l-91 10q-17 4 -12 32q4 28 26 56q22 30 67 53t99 23q144 0 182 -78q4 -10 7 -16t5 -18l3 -18t1 -20t2 -18v-21
t-1 -20v-147q0 -40 17 -61t23 -32q7 -10 -4 -19q-34 -28 -73 -62q-22 -20 -67 48q-7 10 -9 12q-39 -40 -72 -54t-89 -14q-55 0 -95 38t-40 101q0 134 132 173q16 5 38 8t35 5q13 3 39 5t33 3v39z" />
    <glyph glyph-name="uniE089" unicode="&#xe089;" horiz-adv-x="3040" 
d="M1204 -378q-200 0 -404 80t-365 224q-13 12 -5 22t23 2q365 -212 798 -212q315 0 609 125q23 9 35 -9t-9 -33q-130 -95 -306 -147t-376 -52zM1976 -17q48 -7 56 -17t10 -32q1 -48 -26 -121q-27 -74 -81 -120q-11 -9 -19 -5t-2 20t12 28q6 13 14 37q38 107 17 135
q-20 27 -204 4q-13 0 -15 8t11 16q46 34 113 44q66 10 114 3z" />
    <glyph glyph-name="uniE08A" unicode="&#xe08a;" 
d="M1509 1355q-71 0 -167 -33t-135 -33q-37 -1 -137 29t-170 30q-164 0 -272 -140t-108 -372t141 -482t288 -250q47 0 125 32t139 33q59 0 145 -31t137 -31q124 0 250 190q83 127 119 244q-86 25 -154 121t-67 212q0 116 64 206q35 51 111 115q-51 62 -102 98
q-91 62 -207 62zM1470 1547q28 72 28 112t-5 62q-169 -39 -243 -144t-76 -249q68 6 110 20t100 70t86 129zM2400 -431h-2400v2400h2400v-2400z" />
    <glyph glyph-name="uniE08B" unicode="&#xe08b;" 
d="M1509 1355q-71 0 -167 -33t-135 -33q-37 -1 -137 29t-170 30q-164 0 -272 -140t-108 -372t141 -482t288 -250q47 0 125 32t139 33q59 0 145 -31t137 -31q124 0 250 190q83 127 119 244q-86 25 -154 121t-67 212q0 116 64 206q35 51 111 115q-51 62 -102 98
q-91 62 -207 62zM1470 1547q28 72 28 112t-5 62q-169 -39 -243 -144t-76 -249q68 6 110 20t100 70t86 129zM256 1969h1888q106 0 181 -75t75 -181v-1888q0 -106 -75 -181t-181 -75h-1888q-106 0 -181 75t-75 181v1888q0 106 75 181t181 75z" />
    <glyph glyph-name="uniE08C" unicode="&#xe08c;" 
d="M1509 1355q-71 0 -167 -33t-135 -33q-37 -1 -137 29t-170 30q-164 0 -272 -140t-108 -372t141 -482t288 -250q47 0 125 32t139 33q59 0 145 -31t137 -31q124 0 250 190q83 127 119 244q-86 25 -154 121t-67 212q0 116 64 206q35 51 111 115q-51 62 -102 98
q-91 62 -207 62zM1470 1547q28 72 28 112t-5 62q-169 -39 -243 -144t-76 -249q68 6 110 20t100 70t86 129zM352 1969h1696q146 0 249 -103t103 -249v-1696q0 -146 -103 -249t-249 -103h-1696q-146 0 -249 103t-103 249v1696q0 146 103 249t249 103z" />
    <glyph glyph-name="uniE08D" unicode="&#xe08d;" 
d="M1509 1355q-71 0 -167 -33t-135 -33q-37 -1 -137 29t-170 30q-164 0 -272 -140t-108 -372t141 -482t288 -250q47 0 125 32t139 33q59 0 145 -31t137 -31q124 0 250 190q83 127 119 244q-86 25 -154 121t-67 212q0 116 64 206q35 51 111 115q-51 62 -102 98
q-91 62 -207 62zM1470 1547q28 72 28 112t-5 62q-169 -39 -243 -144t-76 -249q68 6 110 20t100 70t86 129zM837 1969h726q211 -1 307 -7t184 -34q106 -38 186 -118t110 -164t40 -173q10 -88 10 -341v-726q0 -210 -6 -306t-35 -185q-39 -106 -119 -186t-186 -119
q-88 -28 -184 -34t-307 -7h-726q-211 1 -307 7t-184 34q-106 39 -186 119t-119 186q-29 89 -35 185t-6 306v726q0 253 10 341q10 89 40 173t110 164t186 118q88 28 184 34t307 7z" />
    <glyph glyph-name="uniE08E" unicode="&#xe08e;" 
d="M1509 1355q-71 0 -167 -33t-135 -33q-37 -1 -137 29t-170 30q-164 0 -272 -140t-108 -372t141 -482t288 -250q47 0 125 32t139 33q59 0 145 -31t137 -31q124 0 250 190q83 127 119 244q-86 25 -154 121t-67 212q0 116 64 206q35 51 111 115q-51 62 -102 98
q-91 62 -207 62zM1470 1547q28 72 28 112t-5 62q-169 -39 -243 -144t-76 -249q68 6 110 20t100 70t86 129zM1200 1969q196 -1 379 -61t331 -171t258 -259q112 -148 172 -330q60 -183 60 -379t-60 -379q-60 -182 -172 -330q-110 -148 -258 -259t-331 -171t-379 -61
q-196 1 -379 61t-331 171t-258 259q-112 148 -172 330q-60 183 -60 379t60 379q60 182 172 330q110 148 258 259t331 171t379 61z" />
    <glyph glyph-name="uniE08F" unicode="&#xe08f;" 
d="M1509 1355q116 0 207 -62q51 -36 102 -98q-76 -64 -111 -115q-64 -90 -64 -206q-1 -116 67 -212t154 -121q-36 -117 -119 -244q-126 -190 -250 -190q-51 0 -137 31t-145 31q-61 -1 -139 -33t-125 -32q-147 0 -288 250t-141 482t108 372t272 140q70 0 170 -30t137 -29
q39 0 135 33t167 33zM1498 1659q0 -40 -28 -112q-28 -73 -86 -129t-100 -70t-110 -20q2 144 76 249t243 144q5 -22 5 -62z" />
    <glyph glyph-name="uniE091" unicode="&#xe091;" 
d="M1027 536q0 -140 -173 -140h-251v292h255q169 0 169 -152zM1724 847q125 0 156 -165h-345q3 102 91 148q34 18 98 17zM1323 598q0 -179 105 -292q105 -112 289 -112q131 0 224 60t138 198h-187q-11 -36 -57 -68t-123 -32t-125 46t-52 150h557q13 188 -87 323
q-101 136 -283 136q-178 0 -288 -115q-111 -115 -111 -294zM822 1098q162 0 162 -123q0 -67 -40 -97t-104 -30h-237v250h219zM1466 1240v-112h480v112h-480zM1211 1016q0 264 -341 264h-502v-1067h517q157 0 267 77q109 77 109 233q-1 100 -49 171t-146 99q145 69 145 223z
M2400 -431h-2400v2400h2400v-2400z" />
    <glyph glyph-name="uniE092" unicode="&#xe092;" 
d="M1027 536q0 -140 -173 -140h-251v292h255q169 0 169 -152zM1724 847q125 0 156 -165h-345q3 102 91 148q34 18 98 17zM1323 598q0 -179 105 -292q105 -112 289 -112q131 0 224 60t138 198h-187q-11 -36 -57 -68t-123 -32t-125 46t-52 150h557q13 188 -87 323
q-101 136 -283 136q-178 0 -288 -115q-111 -115 -111 -294zM822 1098q162 0 162 -123q0 -67 -40 -97t-104 -30h-237v250h219zM1466 1240v-112h480v112h-480zM1211 1016q0 264 -341 264h-502v-1067h517q157 0 267 77q109 77 109 233q-1 100 -49 171t-146 99q145 69 145 223z
M256 1969h1888q106 0 181 -75t75 -181v-1888q0 -106 -75 -181t-181 -75h-1888q-106 0 -181 75t-75 181v1888q0 106 75 181t181 75z" />
    <glyph glyph-name="uniE093" unicode="&#xe093;" 
d="M1027 536q0 -140 -173 -140h-251v292h255q169 0 169 -152zM1724 847q125 0 156 -165h-345q3 102 91 148q34 18 98 17zM1323 598q0 -179 105 -292q105 -112 289 -112q131 0 224 60t138 198h-187q-11 -36 -57 -68t-123 -32t-125 46t-52 150h557q13 188 -87 323
q-101 136 -283 136q-178 0 -288 -115q-111 -115 -111 -294zM822 1098q162 0 162 -123q0 -67 -40 -97t-104 -30h-237v250h219zM1466 1240v-112h480v112h-480zM1211 1016q0 264 -341 264h-502v-1067h517q157 0 267 77q109 77 109 233q-1 100 -49 171t-146 99q145 69 145 223z
M352 1969h1696q146 0 249 -103t103 -249v-1696q0 -146 -103 -249t-249 -103h-1696q-146 0 -249 103t-103 249v1696q0 146 103 249t249 103z" />
    <glyph glyph-name="uniE094" unicode="&#xe094;" 
d="M1027 536q0 -140 -173 -140h-251v292h255q169 0 169 -152zM1724 847q125 0 156 -165h-345q3 102 91 148q34 18 98 17zM1323 598q0 -179 105 -292q105 -112 289 -112q131 0 224 60t138 198h-187q-11 -36 -57 -68t-123 -32t-125 46t-52 150h557q13 188 -87 323
q-101 136 -283 136q-178 0 -288 -115q-111 -115 -111 -294zM822 1098q162 0 162 -123q0 -67 -40 -97t-104 -30h-237v250h219zM1466 1240v-112h480v112h-480zM1211 1016q0 264 -341 264h-502v-1067h517q157 0 267 77q109 77 109 233q-1 100 -49 171t-146 99q145 69 145 223z
M837 1969h726q211 -1 307 -7t184 -34q106 -38 186 -118t110 -164t40 -173q10 -88 10 -341v-726q0 -210 -6 -306t-35 -185q-39 -106 -119 -186t-186 -119q-88 -28 -184 -34t-307 -7h-726q-211 1 -307 7t-184 34q-106 39 -186 119t-119 186q-29 89 -35 185t-6 306v726
q0 253 10 341q10 89 40 173t110 164t186 118q88 28 184 34t307 7z" />
    <glyph glyph-name="uniE095" unicode="&#xe095;" 
d="M1027 536q0 -140 -173 -140h-251v292h255q169 0 169 -152zM1724 847q125 0 156 -165h-345q3 102 91 148q34 18 98 17zM1323 598q0 -179 105 -292q105 -112 289 -112q131 0 224 60t138 198h-187q-11 -36 -57 -68t-123 -32t-125 46t-52 150h557q13 188 -87 323
q-101 136 -283 136q-178 0 -288 -115q-111 -115 -111 -294zM822 1098q162 0 162 -123q0 -67 -40 -97t-104 -30h-237v250h219zM1466 1240v-112h480v112h-480zM1211 1016q0 264 -341 264h-502v-1067h517q157 0 267 77q109 77 109 233q-1 100 -49 171t-146 99q145 69 145 223z
M1200 1969q196 -1 379 -61t331 -171t258 -259q112 -148 172 -330q60 -183 60 -379t-60 -379q-60 -182 -172 -330q-110 -148 -258 -259t-331 -171t-379 -61q-196 1 -379 61t-331 171t-258 259q-112 148 -172 330q-60 183 -60 379t60 379q60 182 172 330q110 148 258 259
t331 171t379 61z" />
    <glyph glyph-name="uniE096" unicode="&#xe096;" 
d="M1027 536q0 152 -169 152h-255v-292h251q173 0 173 140zM1880 682q-32 165 -156 165q-146 0 -180 -114q-8 -28 -9 -51h345zM1737 194q-204 0 -309 112t-105 292q0 179 111 294t291 115t280 -136t87 -323h-557q8 -196 190 -196q64 0 110 32t57 68h187q-45 -138 -138 -198
t-204 -60zM984 975q0 123 -162 123h-219v-250h237q64 0 104 30t40 97zM1466 1240h480v-112h-480v112zM1211 1016q0 -154 -145 -223q98 -28 146 -99q48 -72 49 -162q0 -165 -109 -242t-267 -77h-517v1067h502q341 0 341 -264z" />
    <glyph glyph-name="uniE099" unicode="&#xe099;" horiz-adv-x="12163" 
d="M3356 839l325 218l-728 485v-435zM3524 726l232 -154v311zM2953 346v-435l728 485l-325 218zM2365 614l-325 -218l728 -485v435zM2198 726l-233 157v-311zM2768 1107v435l-728 -485l325 -218zM2861 506l328 220l-328 221l-329 -221zM3900 320v-1l-988 -657
q-22 -16 -51 -16t-52 16l-988 657l-1 1v1q-3 3 -19 16q-17 14 -17 28t-3 17v4q-1 3 -1 10v661q0 8 1 11v4q0 4 4 12l9 22q3 3 4 5q0 1 10 11t12 10l989 660q52 34 103 0l988 -659q6 -1 13 -9q5 -8 7 -10l3 -3q1 -2 8 -9t7 -18l3 -12q0 -2 1 -4v-682q-3 -6 -3 -12l-1 -2v-2
q-2 -6 -8 -18q0 -9 -13 -18q-13 -10 -16 -13zM11880 1436h202v-1318q0 -31 -25 -66t-73 -36q-49 0 -81 38l-835 1001v-1039h-203v1319q0 32 19 58t49 37q30 10 61 2t50 -33l836 -1002v1039zM8046 828h339q83 0 143 60t60 143q0 84 -60 143t-143 59h-339v-405zM7944 1436h441
q167 0 285 -118t119 -288q-1 -168 -119 -286t-285 -119h-339v-609h-203v1319q0 41 30 71t71 30zM9348 118v1217q0 41 30 71t72 30h845v-203h-744v-405h474v-203h-474v-406h744v-203h-845q-42 0 -72 30t-30 72zM6281 118v1217q0 41 30 71t71 30h845v-203h-744v-405h473v-203
h-473v-406h744v-203h-845q-41 0 -71 30t-30 72zM4719 219h304q137 0 254 68t185 185t68 254t-68 254t-185 185t-254 68h-304v-1014zM4617 1436h406q143 0 275 -56t227 -152q95 -94 151 -226t57 -276q-1 -144 -57 -276t-151 -226q-95 -96 -227 -152t-275 -56h-406
q-41 0 -71 30t-30 72v1217q0 41 30 71t71 30zM854 1277q-150 0 -276 -74t-200 -201q-74 -128 -74 -258t44 -232t118 -174t175 -116q102 -44 213 -44q202 0 354 126l130 -153q-206 -176 -484 -176q-153 -1 -292 59t-240 160q-100 100 -160 240q-60 139 -60 292q0 152 60 292
t160 241q101 101 240 161t292 59q277 0 484 -177l-130 -154q-153 129 -354 129z" />
    <glyph glyph-name="uniE09A" unicode="&#xe09a;" 
d="M936 592h531q33 0 61 -26t29 -64q-1 -38 -29 -64t-61 -26h-531q-33 0 -61 26t-28 64t28 64t61 26zM936 1126h265q33 0 61 -26t28 -58t-14 -53q-29 -43 -75 -43h-265q-33 0 -61 26t-28 64t28 64t61 26zM1208 1502h-277q-231 0 -371 -187q-90 -120 -90 -279v-527
q0 -198 134 -337q62 -64 148 -102t183 -37h536q96 -1 183 37q88 38 150 102t99 152t37 185v327q0 110 -104 110h-75q-37 0 -64 24t-27 66q0 98 -37 185t-99 149q-134 132 -326 132zM2400 -431h-2400v2400h2400v-2400z" />
    <glyph glyph-name="uniE09B" unicode="&#xe09b;" 
d="M936 592h531q33 0 61 -26t29 -64q-1 -38 -29 -64t-61 -26h-531q-33 0 -61 26t-28 64t28 64t61 26zM936 1126h265q33 0 61 -26t28 -58t-14 -53q-29 -43 -75 -43h-265q-33 0 -61 26t-28 64t28 64t61 26zM1208 1502h-277q-231 0 -371 -187q-90 -120 -90 -279v-527
q0 -198 134 -337q62 -64 148 -102t183 -37h536q96 -1 183 37q88 38 150 102t99 152t37 185v327q0 110 -104 110h-75q-37 0 -64 24t-27 66q0 98 -37 185t-99 149q-134 132 -326 132zM256 1969h1888q106 0 181 -75t75 -181v-1888q0 -106 -75 -181t-181 -75h-1888
q-106 0 -181 75t-75 181v1888q0 106 75 181t181 75z" />
    <glyph glyph-name="uniE09C" unicode="&#xe09c;" 
d="M936 592h531q33 0 61 -26t29 -64q-1 -38 -29 -64t-61 -26h-531q-33 0 -61 26t-28 64t28 64t61 26zM936 1126h265q33 0 61 -26t28 -58t-14 -53q-29 -43 -75 -43h-265q-33 0 -61 26t-28 64t28 64t61 26zM1208 1502h-277q-231 0 -371 -187q-90 -120 -90 -279v-527
q0 -198 134 -337q62 -64 148 -102t183 -37h536q96 -1 183 37q88 38 150 102t99 152t37 185v327q0 110 -104 110h-75q-37 0 -64 24t-27 66q0 98 -37 185t-99 149q-134 132 -326 132zM352 1969h1696q146 0 249 -103t103 -249v-1696q0 -146 -103 -249t-249 -103h-1696
q-146 0 -249 103t-103 249v1696q0 146 103 249t249 103z" />
    <glyph glyph-name="uniE09D" unicode="&#xe09d;" 
d="M936 592h531q33 0 61 -26t29 -64q-1 -38 -29 -64t-61 -26h-531q-33 0 -61 26t-28 64t28 64t61 26zM936 1126h265q33 0 61 -26t28 -55q0 -47 -28 -73t-61 -26h-265q-33 0 -61 26t-28 64t28 64t61 26zM1208 1502h-277q-231 0 -371 -187q-90 -120 -90 -279v-527
q0 -198 134 -337q62 -64 148 -102t183 -37h536q96 -1 183 37q88 38 150 102t99 152t37 185v327q0 110 -104 110h-75q-37 0 -64 24t-27 66q0 98 -37 185t-99 149q-134 132 -326 132zM837 1969h726q211 -1 307 -7t184 -34q106 -38 186 -118t110 -164t40 -173q10 -88 10 -341
v-726q0 -210 -6 -306t-35 -185q-39 -106 -119 -186t-186 -119q-88 -28 -184 -34t-307 -7h-726q-211 1 -307 7t-184 34q-106 39 -186 119t-119 186q-29 89 -35 185t-6 306v726q0 253 10 341q10 89 40 173t110 164t186 118q88 28 184 34t307 7z" />
    <glyph glyph-name="uniE09E" unicode="&#xe09e;" 
d="M936 592h531q33 0 61 -26t29 -64q-1 -38 -29 -64t-61 -26h-531q-33 0 -61 26t-28 64t28 64t61 26zM936 1126h265q33 0 61 -26t28 -58t-14 -53q-29 -43 -75 -43h-265q-33 0 -61 26t-28 64t28 64t61 26zM1208 1502h-277q-231 0 -371 -187q-90 -120 -90 -279v-527
q0 -198 134 -337q62 -64 148 -102t183 -37h536q96 -1 183 37q88 38 150 102t99 152t37 185v327q0 110 -104 110h-75q-37 0 -64 24t-27 66q0 98 -37 185t-99 149q-134 132 -326 132zM1200 1969q196 -1 379 -61t331 -171t258 -259q112 -148 172 -330q60 -183 60 -379t-60 -379
q-60 -182 -172 -330q-110 -148 -258 -259t-331 -171t-379 -61q-196 1 -379 61t-331 171t-258 259q-112 148 -172 330q-60 183 -60 379t60 379q60 182 172 330q110 148 258 259t331 171t379 61z" />
    <glyph glyph-name="uniE09F" unicode="&#xe09f;" 
d="M936 592q-33 0 -61 -26t-28 -64t28 -64t61 -26h531q33 0 61 26t29 58q0 32 -14 53q-29 43 -76 43h-531zM936 1126q-33 0 -61 -26t-28 -58t14 -53q29 -43 75 -43h265q46 0 75 43q14 21 14 47t-14 46q-28 44 -75 44h-265zM931 1502h277q192 0 326 -132q62 -62 99 -149
t37 -185q0 -42 27 -66t64 -24h75q104 0 104 -110v-327q0 -97 -37 -185t-99 -152t-150 -102q-87 -38 -183 -37h-536q-129 -1 -236 63t-168 174t-61 239v527q0 98 36 185t99 149q134 132 326 132z" />
    <glyph glyph-name="uniE100" unicode="&#xe100;" 
d="M1264 507v-297l499 333l-223 149zM637 543l499 -333v297l-276 185zM1655 769l159 -107v214zM586 662l159 107l-159 107v-214zM974 769l226 -151l226 151l-226 151zM1264 1031l276 -185l223 149l-499 333v-297zM637 995l223 -149l276 185v297zM1200 27q-19 0 -35 11
l-679 452l-3 3l-4 3l-3 2l-3 4l-2 3l-3 3l-2 3l-2 5l-1 3l-2 4l-1 3l-1 6v3l-1 8v452l1 8v3l1 6l1 3l2 4l1 3l2 5l2 3l3 3l5 7l689 460q14 11 27 11q29 0 43 -11l679 -452l1 -1l3 -2l3 -3l3 -2l3 -4l2 -3l3 -3l2 -3l2 -5l1 -3l2 -4l1 -4l1 -5v-3l1 -8v-452l-1 -8v-3l-1 -6
l-1 -3l-2 -4l-1 -3l-2 -5l-2 -3l-3 -3l-5 -7l-3 -2l-3 -3l-683 -455q-16 -11 -35 -11zM1200 1772q-162 0 -316 -50t-277 -144q-123 -93 -216 -216q-93 -122 -143 -276t-51 -317q1 -163 51 -317t143 -276q93 -123 216 -216q123 -94 277 -144t316 -50t316 50t277 144
q123 93 216 216q93 122 143 276t51 317q-1 163 -51 317t-143 276q-93 123 -216 216q-123 94 -277 144t-316 50zM1200 1969q196 -1 379 -61t331 -171t258 -259q112 -148 172 -330q60 -183 60 -379t-60 -379q-60 -182 -172 -330q-110 -148 -258 -259t-331 -171t-379 -61
q-196 1 -379 61t-331 171t-258 259q-112 148 -172 330q-60 183 -60 379t60 379q60 182 172 330q110 148 258 259t331 171t379 61z" />
    <glyph glyph-name="uniE101" unicode="&#xe101;" 
d="M1763 543l-499 -333v297l276 185zM1136 507v-297l-499 333l223 149zM1814 662l-159 107l159 107v-214zM745 769l-159 -107v214zM1426 769l-226 -151l-226 151l226 151zM1763 995l-223 -149l-276 185v297zM1136 1031l-276 -185l-223 149l499 333v-297zM1200 1511
q-19 0 -35 -11l-679 -452l-3 -3l-4 -3l-3 -2l-3 -4l-2 -3l-3 -3l-2 -3l-2 -5l-1 -3l-2 -4l-1 -4l-1 -5v-3l-1 -8v-452l1 -8v-3l1 -6l1 -3l2 -4l1 -3l2 -5l2 -3l3 -3l5 -7l689 -460q16 -11 35 -11t35 11l679 452l1 1l3 2l3 3l3 2l3 4l2 3l3 3l2 3l2 5l1 3l2 4l1 3l1 6v3l1 8
v452l-1 8v3l-1 5l-1 4l-2 4l-1 3l-2 5l-2 3l-3 3l-5 7l-3 2l-3 3l-683 455q-16 11 -35 11zM2400 -431h-2400v2400h2400v-2400z" />
    <glyph glyph-name="uniE102" unicode="&#xe102;" 
d="M1763 543l-499 -333v297l276 185zM1136 507v-297l-499 333l223 149zM1814 662l-159 107l159 107v-214zM745 769l-159 -107v214zM1426 769l-226 -151l-226 151l226 151zM1763 995l-223 -149l-276 185v297zM1136 1031l-276 -185l-223 149l499 333v-297zM1200 1511
q-19 0 -35 -11l-679 -452l-3 -3l-4 -3l-3 -2l-3 -4l-2 -3l-3 -3l-2 -3l-2 -5l-1 -3l-2 -4l-1 -4l-1 -5v-3l-1 -8v-452l1 -8v-3l1 -6l1 -3l2 -4l1 -3l2 -5l2 -3l3 -3l5 -7l689 -460q16 -11 35 -11t35 11l679 452l1 1l3 2l3 3l3 2l3 4l2 3l3 3l2 3l2 5l1 3l2 4l1 3l1 6v3l1 8
v452l-1 8v3l-1 5l-1 4l-2 4l-1 3l-2 5l-2 3l-3 3l-5 7l-3 2l-3 3l-683 455q-16 11 -35 11zM256 1969h1888q106 0 181 -75t75 -181v-1888q0 -106 -75 -181t-181 -75h-1888q-106 0 -181 75t-75 181v1888q0 106 75 181t181 75z" />
    <glyph glyph-name="uniE103" unicode="&#xe103;" 
d="M1763 543l-499 -333v297l276 185zM1136 507v-297l-499 333l223 149zM1814 662l-159 107l159 107v-214zM745 769l-159 -107v214zM1426 769l-226 -151l-226 151l226 151zM1763 995l-223 -149l-276 185v297zM1136 1031l-276 -185l-223 149l499 333v-297zM1200 1511
q-19 0 -35 -11l-679 -452l-3 -3l-4 -3l-3 -2l-3 -4l-2 -3l-3 -3l-2 -3l-2 -5l-1 -3l-2 -4l-1 -4l-1 -5v-3l-1 -8v-452l1 -8v-3l1 -6l1 -3l2 -4l1 -3l2 -5l2 -3l3 -3l5 -7l689 -460q16 -11 35 -11t35 11l679 452l1 1l3 2l3 3l3 2l3 4l2 3l3 3l2 3l2 5l1 3l2 4l1 3l1 6v3l1 8
v452l-1 8v3l-1 5l-1 4l-2 4l-1 3l-2 5l-2 3l-3 3l-5 7l-3 2l-3 3l-683 455q-16 11 -35 11zM352 1969h1696q146 0 249 -103t103 -249v-1696q0 -146 -103 -249t-249 -103h-1696q-146 0 -249 103t-103 249v1696q0 146 103 249t249 103z" />
    <glyph glyph-name="uniE104" unicode="&#xe104;" 
d="M1763 543l-499 -333v297l276 185zM1136 507v-297l-499 333l223 149zM1814 662l-159 107l159 107v-214zM745 769l-159 -107v214zM1426 769l-226 -151l-226 151l226 151zM1763 995l-223 -149l-276 185v297zM1136 1031l-276 -185l-223 149l499 333v-297zM1200 1511
q-19 0 -35 -11l-679 -452l-1 -1l-3 -2l-3 -3l-3 -2l-3 -4l-2 -3l-3 -3l-2 -3l-2 -5l-1 -3l-2 -4l-1 -4l-1 -5v-3l-1 -8v-452l1 -8v-3l1 -6l1 -3l2 -4l1 -3l2 -5l2 -3l3 -3l5 -7l3 -2l3 -3l683 -455q16 -11 35 -11t35 11l679 452l1 1l3 2l3 3l3 2l3 4l2 3l3 3l2 3l2 5l1 3
l2 4l1 3l1 6v3l1 8v452l-1 8v3l-1 5l-1 4l-2 4l-1 3l-2 5l-2 3l-3 3l-5 7l-3 2l-3 3l-683 455q-16 11 -35 11zM837 1969h726q211 -1 307 -7t184 -34q106 -38 186 -118t110 -164t40 -173q10 -88 10 -341v-726q0 -210 -6 -306t-35 -185q-39 -106 -119 -186t-186 -119
q-88 -28 -184 -34t-307 -7h-726q-211 1 -307 7t-184 34q-106 39 -186 119t-119 186q-29 89 -35 185t-6 306v726q0 253 10 341q10 89 40 173t110 164t186 118q88 28 184 34t307 7z" />
    <glyph glyph-name="uniE105" unicode="&#xe105;" 
d="M1763 543l-499 -333v297l276 185zM1136 507v-297l-499 333l223 149zM1814 662l-159 107l159 107v-214zM745 769l-159 -107v214zM1426 769l-226 -151l-226 151l226 151zM1763 995l-223 -149l-276 185v297zM1136 1031l-276 -185l-223 149l499 333v-297zM1932 508l5 11l4 13
v3l1 8v452l-1 8v3l-9 23v1l-18 18l-679 452q-16 11 -35 11t-35 -11l-679 -452l-1 -1q-1 0 -4 -3q-9 -9 -10 -11l-3 -3q-5 -10 -5 -11l-2 -4q0 -3 -1 -3l-1 -6v-3l-1 -8v-452l1 -8v-3l4 -13q0 -5 10 -17q10 -11 12 -11l680 -453q16 -11 35 -11t35 11l679 452l1 1q11 9 14 14z
M1200 1969q196 -1 379 -61t331 -171t258 -259q112 -148 172 -330q60 -183 60 -379t-60 -379q-60 -182 -172 -330q-110 -148 -258 -259t-331 -171t-379 -61q-196 1 -379 61t-331 171t-258 259q-112 148 -172 330q-60 183 -60 379t60 379q60 182 172 330q110 148 258 259
t331 171t379 61z" />
    <glyph glyph-name="uniE106" unicode="&#xe106;" 
d="M1264 507v-297l499 333l-223 149zM637 543l499 -333v297l-276 185zM1655 769l159 -107v214zM586 662l159 107l-159 107v-214zM974 769l226 -151l226 151l-226 151zM1264 1031l276 -185l223 149l-499 333v-297zM637 995l223 -149l276 185v297zM1200 27q-19 0 -35 11
l-679 452l-3 3l-4 3l-3 2l-3 4l-2 3l-3 3l-2 3l-2 5l-1 3l-2 4l-1 3l-1 6v3l-1 8v452l1 8v3l1 6l1 3l2 4l1 3l2 5l2 3l3 3l5 7l689 460q14 11 27 11q29 0 43 -11l679 -452l1 -1l3 -2l3 -3l3 -2l3 -4l2 -3l3 -3l2 -3l2 -5l1 -3l2 -4l1 -4l1 -5v-3l1 -8v-452l-1 -8v-3l-1 -6
l-1 -3l-2 -4l-1 -3l-2 -5l-2 -3l-3 -3l-5 -7l-3 -2l-3 -3l-683 -455q-16 -11 -35 -11z" />
    <glyph glyph-name="uniE107" unicode="&#xe107;" 
d="M1960 9h-1520v1520h1520v-1520z" />
    <glyph glyph-name="uniE108" unicode="&#xe108;" 
d="M1960 769h-760v760h760v-760z" />
    <glyph glyph-name="uniE109" unicode="&#xe109;" 
d="M1960 9h-760v760h760v-760z" />
    <glyph glyph-name="uniE10A" unicode="&#xe10a;" 
d="M1200 129h-640v640h640v-640zM440 1529v-1520h1520v1520h-1520zM2400 -431h-2400v2400h2400v-2400zM1200 769v640h640v-640h-640z" />
    <glyph glyph-name="uniE10B" unicode="&#xe10b;" 
d="M1200 129h-640v640h640v-640zM440 1529v-1520h1520v1520h-1520zM256 1969h1888q106 0 181 -75t75 -181v-1888q0 -106 -75 -181t-181 -75h-1888q-106 0 -181 75t-75 181v1888q0 106 75 181t181 75zM1200 769v640h640v-640h-640z" />
    <glyph glyph-name="uniE10C" unicode="&#xe10c;" 
d="M1200 129h-640v640h640v-640zM440 1529v-1520h1520v1520h-1520zM352 1969h1696q146 0 249 -103t103 -249v-1696q0 -146 -103 -249t-249 -103h-1696q-146 0 -249 103t-103 249v1696q0 146 103 249t249 103zM1200 769v640h640v-640h-640z" />
    <glyph glyph-name="uniE10D" unicode="&#xe10d;" 
d="M1200 129h-640v640h640v-640zM440 1529v-1520h1520v1520h-1520zM837 1969h726q211 -1 307 -7t184 -34q106 -38 186 -118t110 -164t40 -173q10 -88 10 -341v-726q0 -210 -6 -306t-35 -185q-39 -106 -119 -186t-186 -119q-88 -28 -184 -34t-307 -7h-726q-211 1 -307 7
t-184 34q-106 39 -186 119t-119 186q-29 89 -35 185t-6 306v726q0 253 10 341q10 89 40 173t110 164t186 118q88 28 184 34t307 7zM1200 769v640h640v-640h-640z" />
    <glyph glyph-name="uniE10E" unicode="&#xe10e;" 
d="M1200 129h-640v640h640v-640zM440 1529v-1520h1520v1520h-1520zM1200 1969q196 -1 379 -61t331 -171t258 -259q112 -148 172 -330q60 -183 60 -379t-60 -379q-60 -182 -172 -330q-110 -148 -258 -259t-331 -171t-379 -61q-196 1 -379 61t-331 171t-258 259
q-112 148 -172 330q-60 183 -60 379t60 379q60 182 172 330q110 148 258 259t331 171t379 61zM1200 769v640h640v-640h-640z" />
    <glyph glyph-name="uniE10F" unicode="&#xe10f;" 
d="M1840 129v640h-640v-640h640zM1960 9h-1520v1520h1520v-1520zM1200 769v640h-640v-640h640z" />
    <glyph glyph-name="uniE110" unicode="&#xe110;" 
d="M1200 9h-760v760h760v-760z" />
    <glyph glyph-name="uniE111" unicode="&#xe111;" 
d="M821 460l-454 -135q-30 106 7 230q55 183 257 315zM2400 -431h-2400v344l1329 389l-359 724q428 123 864 -45q211 -81 319 -171l-468 -117l-152 265q-158 29 -375 -13l313 -606l929 273v-1043zM2400 1969v-986q-486 320 -1129 314q-203 -2 -417 -40l-107 228l-394 -45
l150 -316q-380 -175 -503 -518v1363h2400z" />
    <glyph glyph-name="uniE112" unicode="&#xe112;" 
d="M821 460l-454 -135q-30 106 7 230q55 183 257 315zM2400 -175q0 -106 -75 -181t-181 -75h-1888q-70 1 -128 35t-94 93q-34 59 -34 128v89l1324 388l-359 724q428 123 864 -45q211 -81 319 -171l-468 -117l-152 265q-158 29 -375 -13l313 -606l934 274v-788zM256 1969
h1888q106 0 181 -75t75 -181v-734q-275 188 -608 263q-454 102 -943 15l-107 228l-394 -45l150 -316q-372 -172 -498 -505v1094q0 106 75 181t181 75z" />
    <glyph glyph-name="uniE113" unicode="&#xe113;" 
d="M821 460l-454 -135q-30 106 7 230q55 183 257 315zM2400 -79q0 -95 -47 -177t-128 -128q-81 -47 -177 -47h-1696q-95 0 -175 46q-79 45 -127 125t-50 174l1324 388l-359 724q428 123 864 -45q211 -81 319 -171l-468 -117l-152 265q-158 29 -375 -13l313 -606l934 274
v-692zM352 1969h1696q96 0 177 -47t128 -128t47 -177v-638q-275 188 -608 263q-454 102 -943 15l-107 228l-394 -45l150 -316q-372 -172 -498 -505v998q0 146 103 249t249 103z" />
    <glyph glyph-name="uniE114" unicode="&#xe114;" 
d="M821 460l-454 -135q-30 106 7 230q55 183 257 315zM2389 406q-1 -210 -7 -306t-34 -185q-52 -143 -174 -235q-60 -44 -131 -70q-89 -28 -185 -34t-306 -7h-726q-210 1 -306 7t-185 34q-107 39 -193 126t-115 190l1286 376l-359 724q428 123 864 -45q211 -81 319 -171
l-469 -117l-151 265q-158 29 -375 -13l313 -606l934 274v-207zM826 1969h726q253 -1 341 -11q89 -10 173 -40t164 -108q80 -80 108 -164q30 -84 40 -173q10 -88 11 -341v-153q-481 321 -1132 317q-204 -2 -419 -39l-107 228l-394 -45l150 -316q-372 -172 -498 -505v513
q1 253 11 341q10 89 40 173t108 164q80 80 187 118q89 28 185 34t306 7z" />
    <glyph glyph-name="uniE115" unicode="&#xe115;" 
d="M821 460l-454 -135q-30 106 7 230q55 183 257 315zM686 -316q-240 115 -408 317l1027 301l-359 724q428 123 864 -45q211 -81 319 -171l-468 -117l-152 265q-158 29 -375 -13l313 -606l943 277q-36 -292 -203 -530q-167 -239 -425 -378t-547 -139t-529 115zM1164 1969
q160 0 282 -25t230 -73q108 -49 206 -115q189 -128 323 -332t177 -445q-480 321 -1132 317q-204 -2 -420 -39l-107 228l-394 -45l150 -316q-341 -157 -475 -451q-4 48 -4 96q0 196 60 379q60 182 172 330q110 148 258 259t331 171t343 61z" />
    <glyph glyph-name="uniE116" unicode="&#xe116;" 
d="M866 560l-154 332q-160 -105 -210 -255q-31 -94 -4 -187zM806 1391l86 -185q670 116 1172 -172q126 -72 214 -151t122 -126l-1007 -296l-254 492q176 34 304 10l123 -215l380 96q-270 189 -585 213q-191 14 -374 -39l291 -586l-1078 -316q-46 139 -44 310q4 348 266 559
q80 65 186 113l-122 256z" />
    <glyph glyph-name="uniE117" unicode="&#xe117;" 
d="M843 547l-164 354q-169 -110 -223 -272q-32 -98 -6 -199zM192 -239h2016v916l-803 -235l-270 525q188 35 324 10l131 -229l405 102q-363 253 -778 228q-124 -7 -245 -42l310 -626l-1090 -319v-330zM192 1777v-1013q105 232 376 357l-130 273l341 40l92 -197
q777 133 1337 -237v777h-2016zM2304 -335h-2208v2208h2208v-2208z" />
    <glyph glyph-name="uniE118" unicode="&#xe118;" 
d="M843 547l-164 354q-169 -110 -223 -272q-32 -98 -6 -199zM192 -175q0 -27 18 -45t46 -19h1888q28 1 46 19t18 45v852l-803 -235l-270 525q188 35 324 10l131 -229l405 102q-363 253 -778 228q-124 -7 -245 -42l310 -626l-1090 -319v-266zM2144 1777h-1888q-28 -1 -46 -19
t-18 -45v-949q105 232 376 357l-130 273l341 40l92 -197q777 133 1337 -237v713q0 27 -18 45t-46 19zM256 1873h1888q66 0 113 -47t47 -113v-1888q0 -66 -47 -113t-113 -47h-1888q-66 0 -113 47t-47 113v1888q0 66 47 113t113 47z" />
    <glyph glyph-name="uniE119" unicode="&#xe119;" 
d="M843 547l-164 354q-169 -110 -223 -272q-32 -98 -6 -199zM192 -79q0 -66 47 -113t113 -47h1696q66 0 113 47t47 113v756l-803 -235l-270 525q188 35 324 10l131 -229l405 102q-363 253 -778 228q-124 -7 -245 -42l310 -626l-1090 -319v-170zM2048 1777h-1696
q-66 0 -113 -47t-47 -113v-858q103 236 376 362l-130 273l341 40l92 -197q513 89 940 -49q221 -71 397 -188v617q0 66 -47 113t-113 47zM352 1873h1696q106 0 181 -75t75 -181v-1696q0 -106 -75 -181t-181 -75h-1696q-106 0 -181 75t-75 181v1696q0 106 75 181t181 75z" />
    <glyph glyph-name="uniE11A" unicode="&#xe11a;" 
d="M530 559h-140v380h140v-380zM1410 559h-140v380h140v-380zM2010 559h-140v380h140v-380zM1090 1079v-660h320v-100h-320v-140h500v900h-500zM1690 1079v-660h320v-100h-320v-140h500v900h-500zM810 1079v-660h180v660h-180zM810 1359v-180h180v180h-180zM530 1359v-280
h-320v-660h500v940h-180zM2400 -431h-2400v2400h2400v-2400z" />
    <glyph glyph-name="uniE11B" unicode="&#xe11b;" 
d="M2010 559h-140v380h140v-380zM1410 559h-140v380h140v-380zM530 559h-140v380h140v-380zM1690 1079v-660h320v-100h-320v-140h500v900h-500zM1090 1079v-660h320v-100h-320v-140h500v900h-500zM810 1079v-660h180v660h-180zM810 1359v-180h180v180h-180zM530 1359v-280
h-320v-660h500v940h-180zM256 1969h1888q106 0 181 -75t75 -181v-1888q0 -106 -75 -181t-181 -75h-1888q-106 0 -181 75t-75 181v1888q0 106 75 181t181 75z" />
    <glyph glyph-name="uniE11C" unicode="&#xe11c;" 
d="M2010 559h-140v380h140v-380zM1410 559h-140v380h140v-380zM530 559h-140v380h140v-380zM1690 1079v-660h320v-100h-320v-140h500v900h-500zM1090 1079v-660h320v-100h-320v-140h500v900h-500zM810 1079v-660h180v660h-180zM810 1359v-180h180v180h-180zM530 1359v-280
h-320v-660h500v940h-180zM352 1969h1696q146 0 249 -103t103 -249v-1696q0 -146 -103 -249t-249 -103h-1696q-146 0 -249 103t-103 249v1696q0 146 103 249t249 103z" />
    <glyph glyph-name="uniE11D" unicode="&#xe11d;" 
d="M2010 559h-140v380h140v-380zM1410 559h-140v380h140v-380zM530 559h-140v380h140v-380zM1690 1079v-660h320v-100h-320v-140h500v900h-500zM1090 1079v-660h320v-100h-320v-140h500v900h-500zM810 1079v-660h180v660h-180zM810 1359v-180h180v180h-180zM530 1359v-280
h-320v-660h500v940h-180zM837 1969h726q211 -1 307 -7t184 -34q106 -38 186 -118t110 -164t40 -173q10 -88 10 -341v-726q0 -210 -6 -306t-35 -185q-39 -106 -119 -186t-186 -119q-88 -28 -184 -34t-307 -7h-726q-211 1 -307 7t-184 34q-106 39 -186 119t-119 186
q-29 89 -35 185t-6 306v726q0 253 10 341q10 89 40 173t110 164t186 118q88 28 184 34t307 7z" />
    <glyph glyph-name="uniE11E" unicode="&#xe11e;" 
d="M1870 559v380h140v-380h-140zM1270 559v380h140v-380h-140zM390 559v380h140v-380h-140zM1690 419h320v-100h-320v-140h500v900h-500v-660zM1090 419h320v-100h-320v-140h500v900h-500v-660zM810 419h180v660h-180v-660zM810 1179h180v180h-180v-180zM530 1079h-320v-660
h500v940h-180v-280zM1200 1969q196 -1 379 -61t331 -171t258 -259q112 -148 172 -330q60 -183 60 -379t-60 -379q-60 -182 -172 -330q-110 -148 -258 -259t-331 -171t-379 -61q-196 1 -379 61t-331 171t-258 259q-112 148 -172 330q-60 183 -60 379t60 379q60 182 172 330
q110 148 258 259t331 171t379 61z" />
    <glyph glyph-name="uniE11F" unicode="&#xe11f;" 
d="M530 559v380h-140v-380h140zM1410 559v380h-140v-380h140zM2010 559v380h-140v-380h140zM1090 1079h500v-900h-500v140h320v100h-320v660zM1690 1079h500v-900h-500v140h320v100h-320v660zM810 1079h180v-660h-180v660zM810 1359h180v-180h-180v180zM530 1359h180v-940
h-500v660h320v280z" />
    <glyph glyph-name="uniE120" unicode="&#xe120;" 
d="M1960 769h-760v-760h-760v1520h1520v-760z" />
    <glyph glyph-name="uniE121" unicode="&#xe121;" 
d="M1200 0q-266 0 -473 163l17 31q89 158 281 294q132 94 306 155l5 2q117 -303 164 -584q-143 -61 -300 -61zM1480 681q124 19 204 12q173 -15 275 -46q-25 -159 -112 -293t-218 -222q-43 256 -149 549zM458 793q407 0 763 110q35 -68 63 -131l-31 -9q-189 -61 -365 -206
q-66 -55 -125 -122q-60 -68 -83 -101l-52 -78q-197 220 -197 513l1 24h26zM1365 953q223 91 363 231q45 45 66 73q172 -210 174 -480q-162 38 -378 35q-82 -1 -157 -10l-17 40q-23 54 -51 111zM1158 1021q-210 -55 -346 -69q-228 -25 -364 -25q38 177 150 319t274 218
q149 -202 286 -443zM1226 1538q118 0 248 -50t234 -142q-81 -114 -248 -208q-72 -40 -154 -70q-112 206 -238 380q-24 32 -32 46q-10 14 -17 22q89 22 207 22zM1230 -131q152 -1 320 71q166 72 286 192t192 288q72 166 72 349t-72 349t-192 288q-120 120 -286 192t-320 71
q-152 -1 -269 -33t-215 -90t-182 -141q-83 -83 -141 -181q-59 -98 -91 -216q-32 -117 -32 -239t32 -239q32 -118 91 -216q58 -98 141 -181q84 -83 182 -141t215 -90t269 -33zM2400 1969v-2400h-2400v2400h2400z" />
    <glyph glyph-name="uniE122" unicode="&#xe122;" 
d="M1200 0q-266 0 -473 163l17 31q89 158 281 294q132 94 306 155l5 2q117 -303 164 -584q-143 -61 -300 -61zM1480 681q244 38 479 -34q-25 -159 -112 -293t-218 -222q-43 256 -149 549zM458 793q407 0 763 110q35 -68 63 -131l-31 -9q-189 -61 -365 -206
q-66 -55 -125 -122q-60 -68 -83 -101l-52 -78q-197 220 -197 513l1 24h26zM1794 1257q172 -210 174 -480q-162 38 -378 35q-82 -1 -157 -10l-17 40q-23 54 -51 111q288 116 429 304zM872 1464q150 -202 286 -443q-210 -55 -346 -69q-228 -25 -364 -25q38 177 150 319
t274 218zM1190 1538q300 0 518 -192q-81 -114 -248 -208q-72 -40 -154 -70q-112 206 -238 380q-24 32 -32 46q-10 14 -17 22q89 22 171 22zM1230 1669q-152 -1 -269 -33t-215 -90t-182 -141q-83 -83 -141 -181q-59 -98 -91 -216q-32 -117 -32 -239t32 -239q32 -118 91 -216
q120 -203 325 -324q206 -121 452 -121q184 -1 350 71t286 192t192 288q72 166 72 349t-72 349t-192 288q-120 120 -286 192q-168 72 -320 71zM256 1969h1888q106 0 181 -75t75 -181v-1888q0 -106 -75 -181t-181 -75h-1888q-106 0 -181 75t-75 181v1888q0 106 75 181t181 75z
" />
    <glyph glyph-name="uniE123" unicode="&#xe123;" 
d="M1200 0q-266 0 -473 163l17 31q89 158 281 294q132 94 306 155l5 2q117 -303 164 -584q-143 -61 -300 -61zM1480 681q244 38 479 -34q-25 -159 -112 -293t-218 -222q-43 256 -149 549zM458 793q407 0 763 110q35 -68 63 -131l-31 -9q-189 -61 -365 -206
q-66 -55 -125 -122q-60 -68 -83 -101l-52 -78q-197 220 -197 513l1 24h26zM1794 1257q172 -210 174 -480q-162 38 -378 35q-82 -1 -157 -10l-17 40q-23 54 -51 111q288 116 429 304zM872 1464q150 -202 286 -443q-210 -55 -346 -69q-228 -25 -364 -25q38 177 150 319
t274 218zM1190 1538q300 0 518 -192q-81 -114 -248 -208q-72 -40 -154 -70q-112 206 -238 380q-24 32 -32 46q-10 14 -17 22q89 22 171 22zM1230 1669q-152 -1 -269 -33t-215 -90t-182 -141q-83 -83 -141 -181q-59 -98 -91 -216q-32 -117 -32 -239t32 -239q32 -118 91 -216
q120 -203 325 -324q206 -121 452 -121q184 -1 350 71t286 192t192 288q72 166 72 349t-72 349t-192 288q-120 120 -286 192q-168 72 -320 71zM352 1969h1696q146 0 249 -103t103 -249v-1696q0 -146 -103 -249t-249 -103h-1696q-146 0 -249 103t-103 249v1696q0 146 103 249
t249 103z" />
    <glyph glyph-name="uniE124" unicode="&#xe124;" 
d="M1200 0q-266 0 -473 163l17 31q89 158 281 294q132 94 306 155l5 2q117 -303 164 -584q-143 -61 -300 -61zM1480 681q244 38 479 -34q-25 -159 -112 -293t-218 -222q-43 256 -149 549zM458 793q407 0 763 110q35 -68 63 -131l-31 -9q-189 -61 -365 -206
q-66 -55 -125 -122q-60 -68 -83 -101l-52 -78q-197 220 -197 513l1 24h26zM1794 1257q172 -210 174 -480q-162 38 -378 35q-82 -1 -157 -10l-17 40q-23 54 -51 111q288 116 429 304zM872 1464q150 -202 286 -443q-210 -55 -346 -69q-228 -25 -364 -25q38 177 150 319
t274 218zM1190 1538q300 0 518 -192q-81 -114 -248 -208q-72 -40 -154 -70q-112 206 -238 380q-24 32 -32 46q-10 14 -17 22q89 22 171 22zM1230 1669q-152 -1 -269 -33t-215 -90t-182 -141q-83 -83 -141 -181q-59 -98 -91 -216q-32 -117 -32 -239t32 -239q32 -118 91 -216
q120 -203 325 -324q206 -121 452 -121q184 -1 350 71t286 192t192 288q72 166 72 349t-72 349t-192 288q-120 120 -286 192q-168 72 -320 71zM837 1969h726q211 -1 307 -7t184 -34q106 -38 186 -118t110 -164t40 -173q10 -88 10 -341v-726q0 -210 -6 -306t-35 -185
q-39 -106 -119 -186t-186 -119q-88 -28 -184 -34t-307 -7h-726q-211 1 -307 7t-184 34q-106 39 -186 119t-119 186q-29 89 -35 185t-6 306v726q0 253 10 341q10 89 40 173t110 164t186 118q88 28 184 34t307 7z" />
    <glyph glyph-name="uniE125" unicode="&#xe125;" 
d="M1200 0q-266 0 -473 163l17 31q89 158 281 294q132 94 306 155l5 2q117 -303 164 -584q-143 -61 -300 -61zM1480 681q244 38 479 -34q-25 -159 -112 -293t-218 -222q-43 256 -149 549zM458 793q407 0 763 110q35 -68 63 -131l-31 -9q-189 -61 -365 -206
q-66 -55 -125 -122q-60 -68 -83 -101l-52 -78q-197 220 -197 513l1 24h26zM1794 1257q172 -210 174 -480q-162 38 -378 35q-82 -1 -157 -10l-17 40q-23 54 -51 111q288 116 429 304zM872 1464q150 -202 286 -443q-210 -55 -346 -69q-228 -25 -364 -25q38 177 150 319
t274 218zM1190 1538q300 0 518 -192q-81 -114 -248 -208q-72 -40 -154 -70q-112 206 -238 380q-24 32 -32 46q-10 14 -17 22q89 22 171 22zM1230 1669q-152 -1 -269 -33t-215 -90t-182 -141q-83 -83 -141 -181q-59 -98 -91 -216q-32 -117 -32 -239t32 -239q32 -118 91 -216
q120 -203 325 -324q206 -121 452 -121q184 -1 350 71t286 192t192 288q72 166 72 349t-72 349t-192 288q-120 120 -286 192q-168 72 -320 71zM1200 1969q196 -1 379 -61t331 -171t258 -259q112 -148 172 -330q60 -183 60 -379t-60 -379q-60 -182 -172 -330
q-110 -148 -258 -259t-331 -171t-379 -61q-196 1 -379 61t-331 171t-258 259q-112 148 -172 330q-60 183 -60 379t60 379q60 182 172 330q110 148 258 259t331 171t379 61z" />
    <glyph glyph-name="uniE126" unicode="&#xe126;" 
d="M727 163q209 -163 473 -163q157 0 300 61q-47 281 -164 584q-133 -53 -193 -85q-61 -32 -118 -72t-108 -86q-79 -72 -138 -156zM1480 681q106 -293 149 -549q131 88 218 222t112 293q-152 47 -335 45q-74 0 -144 -11zM1221 903q-371 -110 -763 -110h-26l-1 -24
q0 -293 197 -513l16 26q106 165 269 295t340 186l31 9q-28 63 -63 131zM1794 1257q-88 -119 -268 -225q-76 -44 -161 -79q28 -57 51 -111l17 -40q279 34 535 -25q-2 270 -174 480zM1158 1021q-137 241 -286 443q-162 -76 -274 -218t-150 -319q348 0 710 94zM1200 1538
q-92 0 -181 -22q150 -200 287 -448q239 88 373 242q17 20 21 26t8 10q-219 192 -508 192zM2100 769q0 -183 -72 -349t-192 -288q-120 -120 -286 -192t-320 -71q-152 1 -269 33t-215 90q-203 120 -325 325q-121 206 -121 452q0 313 198 563q120 152 304 245q185 92 383 92
q199 1 365 -71t286 -192t192 -288q72 -166 72 -349z" />
    <glyph glyph-name="uniE127" unicode="&#xe127;" 
d="M2096 769q0 -182 -71 -348t-191 -286t-286 -191t-348 -71t-348 71t-286 191t-191 286t-71 348t71 348t191 286t286 191t348 71t348 -71t286 -191t191 -286t71 -348z" />
    <glyph glyph-name="uniE128" unicode="&#xe128;" 
d="M1212 1430q172 0 314 -56t217 -147q24 25 35 41l14 21l45 -56q-27 -36 -56 -66q25 -52 25 -106q0 -101 -80 -186t-216 -134l13 -35q58 6 127 6q174 0 330 -52l-12 -68l-24 8q-132 44 -304 44q-47 0 -93 -5q87 -254 128 -485l3 -12l-62 -43l-5 29q-40 233 -133 502
q-69 -12 -131 -33q-269 -94 -448 -282q-73 -77 -98 -120q-24 -43 -29 -52l-12 -28q-39 28 -52 42l-1 8q44 89 137 192q191 204 480 304q63 22 130 35l-9 24q-111 -29 -233 -29q-208 0 -370 81q-203 -28 -384 -28l-46 1l1 68h19l27 -1q135 0 290 17q-131 102 -131 232
q0 85 58 160t160 127t229 71q-35 51 -62 85l-17 24l28 7l45 9q37 -47 83 -116q35 2 70 2z" />
    <glyph glyph-name="uniE129" unicode="&#xe129;" 
d="M2048 -344q0 -50 -234 -85t-566 -35t-566 35t-234 85t234 85t566 35t566 -35t234 -85z" />
    <glyph glyph-name="uniE12A" unicode="&#xe12a;" 
d="M856 280l-152 94v-88l496 -300l496 300v88l-152 -94l-344 286zM2400 -431h-2400v2400h2400v-2400zM1699 961l-499 -307l351 -292l496 323zM1699 961l348 276l-496 323l-351 -292zM1200 654l-499 307l499 307l-351 292l-496 -323l348 -276l-348 -276l496 -323z" />
    <glyph glyph-name="uniE12B" unicode="&#xe12b;" 
d="M856 280l-152 94v-88l496 -300l496 300v88l-152 -94l-344 286zM256 1969h1888q106 0 181 -75t75 -181v-1888q0 -106 -75 -181t-181 -75h-1888q-106 0 -181 75t-75 181v1888q0 106 75 181t181 75zM1699 961l-499 -307l351 -292l496 323zM1699 961l348 276l-496 323
l-351 -292zM1200 654l-499 307l499 307l-351 292l-496 -323l348 -276l-348 -276l496 -323z" />
    <glyph glyph-name="uniE12C" unicode="&#xe12c;" 
d="M856 280l-152 94v-88l496 -300l496 300v88l-152 -94l-344 286zM352 1969h1696q146 0 249 -103t103 -249v-1696q0 -146 -103 -249t-249 -103h-1696q-146 0 -249 103t-103 249v1696q0 146 103 249t249 103zM1699 961l-499 -307l351 -292l496 323zM1699 961l348 276
l-496 323l-351 -292zM1200 654l-499 307l499 307l-351 292l-496 -323l348 -276l-348 -276l496 -323z" />
    <glyph glyph-name="uniE12D" unicode="&#xe12d;" 
d="M856 280l-152 94v-88l496 -300l496 300v88l-152 -94l-344 286zM837 1969h726q211 -1 307 -7t184 -34q106 -38 186 -118t110 -164t40 -173q10 -88 10 -341v-726q0 -210 -6 -306t-35 -185q-39 -106 -119 -186t-186 -119q-88 -28 -184 -34t-307 -7h-726q-211 1 -307 7
t-184 34q-106 39 -186 119t-119 186q-29 89 -35 185t-6 306v726q0 253 10 341q10 89 40 173t110 164t186 118q88 28 184 34t307 7zM1699 961l-499 -307l351 -292l496 323zM1699 961l348 276l-496 323l-351 -292zM1200 654l-499 307l499 307l-351 292l-496 -323l348 -276
l-348 -276l496 -323z" />
    <glyph glyph-name="uniE12E" unicode="&#xe12e;" 
d="M856 280l-152 94v-88l496 -300l496 300v88l-152 -94l-344 286zM1200 1969q196 -1 379 -61t331 -171t258 -259q112 -148 172 -330q60 -183 60 -379t-60 -379q-60 -182 -172 -330q-110 -148 -258 -259t-331 -171t-379 -61q-196 1 -379 61t-331 171t-258 259
q-112 148 -172 330q-60 183 -60 379t60 379q60 182 172 330q110 148 258 259t331 171t379 61zM1699 961l-499 -307l351 -292l496 323zM1699 961l348 276l-496 323l-351 -292zM1200 654l-499 307l499 307l-351 292l-496 -323l348 -276l-348 -276l496 -323z" />
    <glyph glyph-name="uniE12F" unicode="&#xe12f;" 
d="M1544 280l152 94v-88l-496 -300l-496 300v88l152 -94l344 286zM1200 654l499 307l-499 307l351 292l496 -323l-348 -276l348 -276l-496 -323zM1200 654l-351 -292l-496 323l348 276l-348 276l496 323l351 -292l-499 -307z" />
    <glyph glyph-name="uniE131" unicode="&#xe131;" 
d="M1616 743v-14q0 -65 -41 -103t-105 -39q-64 0 -90 22q-28 22 -28 50q0 49 36 63q52 21 228 21zM995 922q58 0 98 -48t40 -118q-1 -70 -41 -118t-110 -47q-70 0 -112 44q-44 45 -44 109t20 102t56 58q35 18 93 18zM461 924q35 0 64 -11t52 -39t24 -70h-286q12 80 81 108
q30 12 65 12zM2137 982l-170 -340l-173 340h-124l237 -446l-90 -173h119l315 619h-114zM462 998q-122 0 -192 -65t-69 -198q-1 -133 119 -191q60 -30 116 -29q56 -1 81 3t51 12q119 35 134 133l-113 1q-20 -75 -117 -75q-98 0 -138 67q-18 31 -23 72h405v30q0 165 -129 217
q-57 23 -125 23zM1490 925q126 0 126 -100v-8q-76 -1 -164 -3t-150 -38t-63 -114q-1 -106 127 -138q34 -8 73 -9q125 0 185 73q0 -29 3 -56h101q-4 37 -4 88v213q0 42 -17 75l-1 1q-49 90 -202 90q-152 0 -206 -73q-20 -28 -24 -66l110 -1q4 41 54 58q23 8 52 8zM719 1175
v-536q0 -29 -4 -107h107q3 33 4 55q66 -72 193 -72q127 1 195 115q34 56 34 125q0 108 -70 176t-176 68t-176 -71v247h-107zM2400 -431h-2400v2400h2400v-2400z" />
    <glyph glyph-name="uniE132" unicode="&#xe132;" 
d="M1616 743v-14q0 -65 -41 -103t-105 -39q-64 0 -90 22q-28 22 -28 50q0 49 36 63q52 21 228 21zM995 922q58 0 98 -48t40 -118q-1 -70 -41 -118t-110 -47q-70 0 -112 44q-44 45 -44 109t20 102t56 58q35 18 93 18zM461 924q35 0 64 -11t52 -39t24 -70h-286q12 80 81 108
q30 12 65 12zM2137 982l-170 -340l-173 340h-124l237 -446l-90 -173h119l315 619h-114zM462 998q-122 0 -192 -65t-69 -198q-1 -133 119 -191q60 -30 116 -29q56 -1 81 3t51 12q119 35 134 133l-113 1q-20 -75 -117 -75q-98 0 -138 67q-18 31 -23 72h405v30q0 165 -129 217
q-57 23 -125 23zM1490 925q126 0 126 -100v-8q-76 -1 -164 -3t-150 -38t-63 -114q-1 -106 127 -138q34 -8 73 -9q125 0 185 73q0 -29 3 -56h101q-4 37 -4 88v213q0 42 -17 75l-1 1q-49 90 -202 90q-152 0 -206 -73q-20 -28 -24 -66l110 -1q4 41 54 58q23 8 52 8zM719 1175
v-536q0 -29 -4 -107h107q3 33 4 55q66 -72 193 -72q127 1 195 115q34 56 34 125q0 108 -70 176t-176 68t-176 -71v247h-107zM256 1969h1888q106 0 181 -75t75 -181v-1888q0 -106 -75 -181t-181 -75h-1888q-106 0 -181 75t-75 181v1888q0 106 75 181t181 75z" />
    <glyph glyph-name="uniE133" unicode="&#xe133;" 
d="M1616 743v-14q0 -65 -41 -103t-105 -39q-64 0 -90 22q-28 22 -28 50q0 49 36 63q52 21 228 21zM995 922q58 0 98 -48t40 -118q-1 -70 -41 -118t-110 -47q-70 0 -112 44q-44 45 -44 109t20 102t56 58q35 18 93 18zM461 924q35 0 64 -11t52 -39t24 -70h-286q12 80 81 108
q30 12 65 12zM2137 982l-170 -340l-173 340h-124l237 -446l-90 -173h119l315 619h-114zM462 998q-122 0 -192 -65t-69 -198q-1 -133 119 -191q60 -30 116 -29q56 -1 81 3t51 12q119 35 134 133l-113 1q-20 -75 -117 -75q-98 0 -138 67q-18 31 -23 72h405v30q0 165 -129 217
q-57 23 -125 23zM1490 925q126 0 126 -100v-8q-76 -1 -164 -3t-150 -38t-63 -114q-1 -106 127 -138q34 -8 73 -9q125 0 185 73q0 -29 3 -56h101q-4 37 -4 88v213q0 42 -17 75l-1 1q-49 90 -202 90q-152 0 -206 -73q-20 -28 -24 -66l110 -1q4 41 54 58q23 8 52 8zM719 1175
v-536q0 -29 -4 -107h107q3 33 4 55q66 -72 193 -72q127 1 195 115q34 56 34 125q0 108 -70 176t-176 68t-176 -71v247h-107zM352 1969h1696q146 0 249 -103t103 -249v-1696q0 -146 -103 -249t-249 -103h-1696q-146 0 -249 103t-103 249v1696q0 146 103 249t249 103z" />
    <glyph glyph-name="uniE134" unicode="&#xe134;" 
d="M1616 743v-14q0 -65 -41 -103t-105 -39q-64 0 -90 22q-28 22 -28 50q0 49 36 63q52 21 228 21zM995 922q58 0 98 -48t40 -118q-1 -70 -41 -118t-110 -47q-70 0 -112 44q-44 45 -44 109t20 102t56 58q35 18 93 18zM461 924q35 0 64 -11t52 -39t24 -70h-286q12 80 81 108
q30 12 65 12zM2137 982l-170 -340l-173 340h-124l237 -446l-90 -173h119l315 619h-114zM462 998q-122 0 -192 -65t-69 -198q-1 -133 119 -191q60 -30 116 -29q56 -1 81 3t51 12q119 35 134 133l-113 1q-20 -75 -117 -75q-98 0 -138 67q-18 31 -23 72h405v30q0 165 -129 217
q-57 23 -125 23zM1490 925q126 0 126 -100v-8q-76 -1 -164 -3t-150 -38t-63 -114q-1 -106 127 -138q34 -8 73 -9q125 0 185 73q0 -29 3 -56h101q-4 37 -4 88v213q0 42 -17 75l-1 1q-49 90 -202 90q-152 0 -206 -73q-20 -28 -24 -66l110 -1q4 41 54 58q23 8 52 8zM719 1175
v-536q0 -29 -4 -107h107q3 33 4 55q66 -72 193 -72q127 1 195 115q34 56 34 125q0 108 -70 176t-176 68t-176 -71v247h-107zM837 1969h726q211 -1 307 -7t184 -34q106 -38 186 -118t110 -164t40 -173q10 -88 10 -341v-726q0 -210 -6 -306t-35 -185q-39 -106 -119 -186
t-186 -119q-88 -28 -184 -34t-307 -7h-726q-211 1 -307 7t-184 34q-106 39 -186 119t-119 186q-29 89 -35 185t-6 306v726q0 253 10 341q10 89 40 173t110 164t186 118q88 28 184 34t307 7z" />
    <glyph glyph-name="uniE135" unicode="&#xe135;" 
d="M1616 743v-14q0 -65 -41 -103t-105 -39q-64 0 -90 22q-28 22 -28 50q0 49 36 63q52 21 228 21zM995 922q58 0 98 -48t40 -118q-1 -70 -41 -118t-110 -47q-70 0 -112 44q-44 45 -44 109t20 102t56 58q35 18 93 18zM461 924q35 0 64 -11t52 -39t24 -70h-286q12 80 81 108
q30 12 65 12zM2137 982l-170 -340l-173 340h-124l237 -446l-90 -173h119l315 619h-114zM462 998q-122 0 -192 -65t-69 -198q-1 -133 119 -191q60 -30 116 -29q56 -1 81 3t51 12q119 35 134 133l-113 1q-20 -75 -117 -75q-98 0 -138 67q-18 31 -23 72h405v30q0 165 -129 217
q-57 23 -125 23zM1490 925q126 0 126 -100v-8q-76 -1 -164 -3t-150 -38t-63 -114q-1 -106 127 -138q34 -8 73 -9q125 0 185 73q0 -29 3 -56h101q-4 37 -4 88v213q0 42 -17 75l-1 1q-49 90 -202 90q-152 0 -206 -73q-20 -28 -24 -66l110 -1q4 41 54 58q23 8 52 8zM719 1175
v-536q0 -29 -4 -107h107q3 33 4 55q66 -72 193 -72q127 1 195 115q34 56 34 125q0 108 -70 176t-176 68t-176 -71v247h-107zM1200 1969q196 -1 379 -61t331 -171t258 -259q112 -148 172 -330q60 -183 60 -379t-60 -379q-60 -182 -172 -330q-110 -148 -258 -259t-331 -171
t-379 -61q-196 1 -379 61t-331 171t-258 259q-112 148 -172 330q-60 183 -60 379t60 379q60 182 172 330q110 148 258 259t331 171t379 61z" />
    <glyph glyph-name="uniE136" unicode="&#xe136;" 
d="M1616 729v14q-183 0 -223 -18q-41 -18 -41 -50t11 -49q25 -39 98 -39q73 1 114 39t41 103zM983 922q-157 0 -157 -185q0 -58 44 -102t112 -44q70 -1 110 47t41 118q0 70 -40 118t-110 48zM450 924q-46 0 -86 -30t-49 -90h286q-1 42 -24 70t-52 39t-75 11zM1936 363h-119
l90 173l-237 446h125l172 -339l170 339h114zM462 999q202 -1 244 -161q10 -36 10 -80v-30h-405q7 -62 47 -100t94 -39q116 0 137 75l113 -1q-16 -107 -160 -139q-38 -8 -76 -9q-128 0 -196 63q-68 62 -69 176t69 180t192 65zM1502 999q155 0 204 -90l1 -1q17 -33 17 -75
v-213q0 -51 4 -88h-101q-3 27 -3 56q-60 -73 -172 -73t-162 43t-51 113q0 137 239 144q62 2 138 2v8q0 100 -126 100q-44 0 -74 -18t-32 -48l-110 1q8 106 147 132q37 7 81 7zM826 1175v-247q70 71 176 71t176 -68q70 -69 70 -175t-70 -174t-178 -67q-108 0 -174 72
q-1 -22 -4 -55h-107q4 78 4 107v536h107z" />
    <glyph glyph-name="uniE137" unicode="&#xe137;" 
d="M450 924q-46 0 -86 -30t-49 -90h286q-1 42 -24 70t-52 39t-75 11zM462 998q180 0 235 -133q19 -46 19 -107v-30h-405q7 -62 47 -100t94 -39q116 0 137 75l113 -1q-16 -107 -160 -139q-38 -8 -76 -9q-128 0 -196 63q-68 62 -69 176t69 179t192 65z" />
    <glyph glyph-name="uniE138" unicode="&#xe138;" 
d="M1002 999q106 0 176 -68q70 -69 70 -175t-70 -174t-178 -67q-108 0 -174 72q-1 -22 -4 -55h-107q4 78 4 107v536h107v-247q70 71 176 71zM982 591q70 -1 110 47t41 118q0 70 -40 118t-110 48q-69 0 -113 -44t-44 -122t44 -121q42 -44 112 -44z" />
    <glyph glyph-name="uniE139" unicode="&#xe139;" 
d="M1463 587q71 1 112 39t41 103v14q-183 0 -223 -18q-41 -18 -41 -60q0 -78 111 -78zM1724 833v-213q0 -51 4 -88h-101q-3 27 -3 56q-60 -73 -185 -73q-77 0 -121 25q-79 45 -79 123q1 79 63 114t150 37t164 3v8q0 100 -126 100q-44 0 -74 -18t-32 -48l-110 1
q8 106 147 132q37 7 81 7q155 0 204 -90l1 -1q17 -33 17 -75z" />
    <glyph glyph-name="uniE13A" unicode="&#xe13a;" 
d="M1501 995q154 0 201 -88l1 -1q17 -32 17 -73v-213q0 -53 3 -84h-92q-4 27 -4 61h-2q-57 -78 -187 -78q-77 1 -120 25q-75 44 -75 120t61 110q60 34 148 36t168 3v12q0 104 -131 104q-44 1 -75 -19t-34 -51h-103q11 103 145 129q36 7 79 7zM1620 729v18q-183 0 -217 -14
q-35 -13 -45 -29t-11 -45q0 -29 29 -53q30 -24 82 -23q52 0 88 18q74 37 74 128zM450 924q-46 0 -86 -30t-49 -90h286q-1 42 -24 70t-52 39t-75 11zM462 998q180 0 235 -133q19 -46 19 -107v-30h-405q7 -62 47 -100t94 -39q116 0 137 75l113 -1q-16 -107 -160 -139
q-38 -8 -76 -9q-128 0 -196 63q-68 62 -69 176t69 179t192 65z" />
    <glyph glyph-name="uniE13B" unicode="&#xe13b;" 
d="M2244 978l-311 -611h-110l88 169l-234 442h115l175 -344l172 344h105zM983 922q-69 0 -113 -44t-44 -122t44 -121q44 -44 112 -44q70 -1 110 47t41 118q0 70 -40 118t-110 48zM826 1175v-247q70 71 176 71t176 -68q70 -69 70 -175t-70 -174t-178 -67q-108 0 -174 72
q-1 -22 -4 -55h-107q4 78 4 107v536h107z" />
    <glyph glyph-name="uniE13C" unicode="&#xe13c;" 
d="M1501 995q154 0 201 -88l1 -1q17 -32 17 -73v-213q0 -53 3 -84h-92q-4 27 -4 61h-2q-57 -78 -187 -78q-77 1 -120 25q-75 44 -75 118q0 144 235 149q62 2 142 2v12q0 104 -131 104q-61 0 -92 -33q-15 -16 -17 -37h-103q11 103 145 129q36 7 79 7zM1620 729v18
q-183 0 -217 -14q-35 -13 -45 -29t-11 -45q0 -29 29 -53t94 -23q66 0 108 40t42 106zM1792 978l175 -344l172 344h105l-311 -611h-110l88 169l-234 442h115z" />
    </font>
</defs>
</svg>
