<?xml version="1.0" standalone="no"?>
<!DOCTYPE svg PUBLIC "-//W3C//DTD SVG 1.1//EN" "http://www.w3.org/Graphics/SVG/1.1/DTD/svg11.dtd" >
<svg xmlns="http://www.w3.org/2000/svg">
<metadata>
Created by FontPrep 20130207 at Mon Feb  3 11:59:37 2014
 By Main
Copyright (c) 2014, Parker Bennett &#60;parkerbennett.com&#62; with Reserved Font Name &#60;Stackicons-Social&#62;, SIL Open Font License 1.1
</metadata>
<defs>
<font id="d339c11cf78cf555322ad08d5a19a46e" horiz-adv-x='1024' >
  <font-face 
    font-family="Stackicons-Social-Minimal-Regular"
    font-weight="400"
    font-stretch="normal"
    units-per-em="2048"
    panose-1="0 0 5 0 0 0 0 0 0 0"
    ascent="1638"
    descent="-410"
    cap-height="1536"
    bbox="-57.3333 -560 12082 1969"
    underline-thickness="50"
    underline-position="-167"
    unicode-range="U+000D-E615"
  />
<missing-glyph horiz-adv-x="600" 
 />
    <glyph glyph-name=".notdef" horiz-adv-x="600" 
 />
    <glyph glyph-name="uni0000" horiz-adv-x="569" 
 />
    <glyph glyph-name="uni0000" horiz-adv-x="569" 
 />
    <glyph glyph-name="uni000D" unicode="&#xd;" horiz-adv-x="569" 
 />
    <glyph glyph-name="space" unicode=" " horiz-adv-x="569" 
 />
    <glyph glyph-name="plus" unicode="+" 
d="M1385 953h488v-368h-488v-488h-368v488h-488v368h488v488h368v-488z" />
    <glyph glyph-name="less" unicode="&#x3c;" horiz-adv-x="2028" 
d="M1389 1351l-525 -583l525 -583l-141 -127l-640 710l640 710z" />
    <glyph glyph-name="greater" unicode="&#x3e;" horiz-adv-x="2028" 
d="M1418 768l-640 -710l-141 127l525 583l-525 583l141 127z" />
    <glyph glyph-name="A" unicode="A" 
d="M1200 1235l-351 -521h702zM1200 1536l865 -1282l-204 1l-196 291h-930l-196 -291l-204 -1z" />
    <glyph glyph-name="g" unicode="g" 
d="M1452 768l-416 -232v464zM400 768q0 -138 13 -265q13 -125 33 -161q37 -64 81 -90t190 -35q145 -9 483 -9t482 10t190 34q44 24 77 81t45 245t0 378q-12 188 -40 236t-52 70q-49 45 -165 52q-203 14 -537 14t-480 -10t-192 -34q-44 -24 -73 -76q-29 -50 -42 -176
t-13 -264zM256 1969h1888q106 0 181 -75t75 -181v-1888q0 -106 -75 -181t-181 -75h-1888q-106 0 -181 75t-75 181v1888q0 106 75 181t181 75z" />
    <glyph glyph-name="multiply" unicode="&#xd7;" 
d="M2070 528q0 101 -23 198t-66 182t-102 160q-113 144 -292 234t-402 90q-222 0 -422 -116t-317 -315t-117 -433q0 -235 117 -433t316 -315q200 -117 430 -117q307 0 552 190q145 113 237 294q89 176 89 381zM1200 1616q148 0 289 -40t261 -109q120 -71 220 -171t170 -220
t109 -260q39 -141 39 -289t-39 -289t-109 -260q-70 -120 -170 -220t-220 -170t-261 -109t-289 -39t-289 39t-261 109t-220 170t-170 220q-70 119 -109 260t-39 289t39 289q39 140 109 260t170 220t220 171q120 69 261 109t289 40zM1610 1049q46 -1 79 -33t33 -78t-33 -80
l-331 -330l331 -331q33 -33 33 -79t-33 -80q-33 -32 -79 -32t-79 33l-331 330l-331 -330q-33 -33 -79 -33t-79 32t-33 80q0 46 33 79l331 331l-331 330q-33 34 -33 80t33 78t79 33q46 0 79 -32l331 -331l331 331q33 32 79 32z" />
    <glyph glyph-name="uni2009" unicode="&#x2009;" horiz-adv-x="100" 
 />
    <glyph glyph-name="uni200A" unicode="&#x200a;" horiz-adv-x="1" 
 />
    <glyph glyph-name="arrowleft" unicode="&#x2190;" horiz-adv-x="1601" 
d="M79 534q0 32 17 53l504 503q50 54 120 58t122 -43q52 -49 54 -117t-45 -123l-189 -176l84 16h604q72 1 122 -49t50 -122t-50 -121q-50 -50 -122 -50h-604l-84 16l189 -175q47 -56 45 -124t-54 -118q-54 -45 -122 -40t-120 56l-504 504q-17 20 -17 52z" />
    <glyph glyph-name="arrowright" unicode="&#x2192;" horiz-adv-x="1601" 
d="M1521 528q0 -32 -18 -52l-504 -503q-49 -53 -119 -57t-122 42q-52 48 -54 116t45 124l189 176l-84 -16h-604q-72 0 -122 50t-51 120q1 72 51 122t122 50h604l84 -16l-189 175q-47 57 -45 125t54 116q54 46 122 41t119 -56l504 -504q18 -21 18 -53z" />
    <glyph glyph-name="triagdn" unicode="&#x25bc;" horiz-adv-x="2028" 
d="M1014 368l-710 640h1420z" />
    <glyph glyph-name="uni2630" unicode="&#x2630;" 
d="M1888 197h-1376v240h1376v-240zM1888 649h-1376v240h1376v-240zM1888 1101h-1376v240h1376v-240z" />
    <glyph glyph-name="uni2709" unicode="&#x2709;" 
d="M1200 653l900 650h-1800zM2076 235v907l-876 -633l-876 633v-907h1752zM214 1410h1972v-1282h-1972v1282z" />
    <glyph glyph-name="uniE001" unicode="&#xe001;" 
d="M2400 1969v-2400h-2400v2400h2400z" />
    <glyph glyph-name="uniE002" unicode="&#xe002;" 
d="M256 1969h1888q106 0 181 -75t75 -181v-1888q0 -106 -75 -181t-181 -75h-1888q-106 0 -181 75t-75 181v1888q0 106 75 181t181 75z" />
    <glyph glyph-name="uniE003" unicode="&#xe003;" 
d="M352 1969h1696q146 0 249 -103t103 -249v-1696q0 -146 -103 -249t-249 -103h-1696q-146 0 -249 103t-103 249v1696q0 146 103 249t249 103z" />
    <glyph glyph-name="uniE004" unicode="&#xe004;" 
d="M837 1969h726q211 -1 307 -7t184 -34q106 -38 186 -118t110 -164t40 -173q10 -88 10 -341v-726q0 -210 -6 -306t-35 -185q-39 -106 -119 -186t-186 -119q-88 -28 -184 -34t-307 -7h-726q-211 1 -307 7t-184 34q-106 39 -186 119t-119 186q-29 89 -35 185t-6 306v726
q0 253 10 341q10 89 40 173t110 164t186 118q88 28 184 34t307 7z" />
    <glyph glyph-name="uniE005" unicode="&#xe005;" 
d="M1200 1969q196 -1 379 -61t331 -171t258 -259q112 -148 172 -330q60 -183 60 -379t-60 -379q-60 -182 -172 -330q-110 -148 -258 -259t-331 -171t-379 -61q-196 1 -379 61t-331 171t-258 259q-112 148 -172 330q-60 183 -60 379t60 379q60 182 172 330q110 148 258 259
t331 171t379 61z" />
    <glyph glyph-name="uniE020" unicode="&#xe020;" 
d="M1200 1669q184 1 350 -71t286 -192t192 -288q72 -166 72 -349t-72 -349t-192 -288q-120 -120 -286 -192t-350 -71q-184 -1 -350 71t-286 192t-192 288q-72 166 -72 349t72 349t192 288q120 120 286 192t350 71z" />
    <glyph glyph-name="uniE021" unicode="&#xe021;" 
d="M2400 1969v-2400h-804v923h320l58 354h-378v284q0 90 83 127q39 17 107 17t188 -7v315q-129 19 -249 19q-237 0 -370 -127q-51 -50 -83 -138t-32 -201v-289h-312v-354h312v-923h-1240v2400h2400z" />
    <glyph glyph-name="uniE022" unicode="&#xe022;" 
d="M256 1969h1888q106 0 181 -75t75 -181v-1888q0 -106 -75 -181t-181 -75h-548v923h320l58 354h-378v284q0 90 83 127q39 17 107 17t188 -7v315q-129 19 -249 19q-237 0 -370 -127q-51 -50 -83 -138t-32 -201v-289h-312v-354h312v-923h-984q-106 0 -181 75t-75 181v1888
q0 106 75 181t181 75z" />
    <glyph glyph-name="uniE023" unicode="&#xe023;" 
d="M352 1969h1696q96 0 177 -47t128 -128t47 -177v-1696q0 -95 -47 -177t-128 -128q-81 -47 -177 -47h-452v923h320l58 354h-378v284q0 90 83 127q39 17 107 17t188 -7v315q-129 19 -249 19q-237 0 -370 -127q-51 -50 -83 -138t-32 -201v-289h-312v-354h312v-923h-888
q-146 0 -249 103t-103 249v1696q0 146 103 249t249 103z" />
    <glyph glyph-name="uniE024" unicode="&#xe024;" 
d="M837 1969h726q211 -1 307 -7t184 -34q106 -38 186 -118t110 -164t40 -173q10 -88 10 -341v-726q0 -210 -6 -306t-35 -185q-53 -143 -175 -235q-60 -44 -130 -70q-86 -27 -178 -34t-280 -7v923h320l58 354h-378v284q0 90 83 127q39 17 107 17t188 -7v315q-129 19 -249 19
q-237 0 -370 -127q-51 -50 -83 -138t-32 -201v-289h-312v-354h312v-923h-403q-211 1 -307 7t-184 34q-106 39 -186 119t-119 186q-29 89 -35 185t-6 306v726q0 210 6 306t35 185q39 107 119 187t186 118q88 28 184 34t307 7z" />
    <glyph glyph-name="uniE025" unicode="&#xe025;" 
d="M2400 790q0 -176 -38 -324q-74 -285 -277 -508q-203 -222 -489 -322v856h320l58 354h-378v284q0 90 83 127q39 17 107 17t188 -7v315q-129 19 -249 19q-237 0 -370 -127q-51 -50 -83 -138t-32 -201v-289h-312v-354h312v-922q-13 -1 -40 -1q-196 1 -379 61t-331 171
t-258 259q-112 148 -172 330q-60 183 -60 379t60 379q60 182 172 330q110 148 258 259t331 171t379 61q196 -1 379 -61t331 -171t258 -259q112 -148 172 -330t60 -358z" />
    <glyph glyph-name="uniE026" unicode="&#xe026;" 
d="M1725 1601q120 0 249 -19v-315q-120 7 -202 7t-128 -39q-48 -39 -48 -105v-284h378l-58 -354h-320v-923h-356v923h-312v354h312v289q0 113 32 201t83 138q133 127 370 127z" />
    <glyph glyph-name="uniE027" unicode="&#xe027;" 
d="M1184 1969q180 0 334 -43q156 -42 288 -120q271 -160 432 -435q162 -274 162 -602q0 -203 -66 -391t-180 -338q-115 -150 -275 -260t-347 -164v881h320l58 354h-378v284q0 89 83 126q39 17 107 17t188 -6v315q-129 19 -249 19q-237 0 -370 -127q-51 -49 -83 -138
t-32 -201v-289h-312v-354h312v-928q-192 5 -372 67t-324 173t-254 257q-108 146 -167 328t-59 376t60 378q60 182 172 330q110 148 258 259t331 171t363 61z" />
    <glyph glyph-name="uniE028" unicode="&#xe028;" 
d="M1661 1606q120 0 249 -19v-315q-120 6 -202 6t-128 -38q-48 -38 -48 -105v-284h378l-58 -354h-320v-881q-160 -47 -332 -47h-24v928h-312v354h312v289q0 112 32 201t83 138q133 127 370 127z" />
    <glyph glyph-name="uniE02A" unicode="&#xe02a;" 
d="M1455 1626q-203 0 -314 -107q-59 -57 -85 -165q-14 -58 -13 -122v-245h-263v-299h263v-780h301v780h271l50 299h-321v241q0 56 40 88t112 33q71 0 168 -5v266q-106 16 -209 16zM2400 -431h-2400v2400h2400v-2400z" />
    <glyph glyph-name="uniE02B" unicode="&#xe02b;" 
d="M1455 1626q-203 0 -314 -107q-59 -57 -85 -165q-14 -58 -13 -122v-245h-263v-299h263v-780h301v780h271l50 299h-321v241q0 56 40 88t112 33q71 0 168 -5v266q-106 16 -209 16zM256 1969h1888q106 0 181 -75t75 -181v-1888q0 -106 -75 -181t-181 -75h-1888
q-106 0 -181 75t-75 181v1888q0 106 75 181t181 75z" />
    <glyph glyph-name="uniE02C" unicode="&#xe02c;" 
d="M1455 1626q-203 0 -314 -107q-59 -57 -85 -165q-14 -58 -13 -122v-245h-263v-299h263v-780h301v780h271l50 299h-321v241q0 56 40 88t112 33q71 0 168 -5v266q-106 16 -209 16zM352 1969h1696q146 0 249 -103t103 -249v-1696q0 -146 -103 -249t-249 -103h-1696
q-146 0 -249 103t-103 249v1696q0 146 103 249t249 103z" />
    <glyph glyph-name="uniE02D" unicode="&#xe02d;" 
d="M1470 1626q-215 0 -329 -107q-43 -41 -71 -117t-27 -170v-245h-263v-299h263v-780h301v780h271l49 299h-320v241q0 56 40 88t112 33q71 0 168 -5v266q-106 16 -194 16zM837 1969h726q211 -1 307 -7t184 -34q106 -38 186 -118t110 -164t40 -173q10 -88 10 -341v-726
q0 -210 -6 -306t-35 -185q-39 -106 -119 -186t-186 -119q-88 -28 -184 -34t-307 -7h-726q-211 1 -307 7t-184 34q-106 39 -186 119t-119 186q-29 89 -35 185t-6 306v726q0 253 10 341q10 89 40 173t110 164t186 118q88 28 184 34t307 7z" />
    <glyph glyph-name="uniE02E" unicode="&#xe02e;" 
d="M1455 1626q-203 0 -314 -107q-59 -57 -85 -165q-14 -58 -13 -122v-245h-263v-299h263v-780h301v780h271l50 299h-321v241q0 56 40 88t112 33q71 0 168 -5v266q-106 16 -209 16zM1200 1969q196 -1 379 -61t331 -171t258 -259q112 -148 172 -330q60 -183 60 -379t-60 -379
q-60 -182 -172 -330q-110 -148 -258 -259t-331 -171t-379 -61q-196 1 -379 61t-331 171t-258 259q-112 148 -172 330q-60 183 -60 379t60 379q60 182 172 330q110 148 258 259t331 171t379 61z" />
    <glyph glyph-name="uniE02F" unicode="&#xe02f;" 
d="M1496 1349q-72 -1 -112 -33t-40 -88v-241h320l-49 -299h-271v-780h-301v780h-263v299h263v245q-1 94 27 170q81 223 385 224q103 0 209 -15v-267q-97 5 -168 5z" />
    <glyph glyph-name="uniE031" unicode="&#xe031;" 
d="M550 1190q0 -185 141 -280q-77 2 -144 40v-4q1 -114 73 -202t182 -110q-41 -11 -77 -11t-66 6q29 -95 111 -157t185 -64q-173 -136 -394 -136q-38 0 -76 4q223 -142 487 -142q407 0 671 294q147 164 206 397q27 107 26 213v41q94 68 159 164q-87 -38 -183 -50
q104 62 140 176q-94 -56 -202 -77q-94 100 -229 100q-136 0 -228 -92t-92 -225q0 -37 8 -73q-196 10 -366 98t-289 234q-43 -74 -43 -144zM2400 -431h-2400v2400h2400v-2400z" />
    <glyph glyph-name="uniE032" unicode="&#xe032;" 
d="M550 1190q0 -185 141 -280q-77 2 -144 40v-4q1 -114 73 -202t182 -110q-41 -11 -77 -11t-66 6q29 -95 111 -157t185 -64q-173 -136 -394 -136q-38 0 -76 4q223 -142 487 -142q407 0 671 294q147 164 206 397q27 107 26 213v41q94 68 159 164q-87 -38 -183 -50
q104 62 140 176q-94 -56 -202 -77q-94 100 -229 100q-136 0 -228 -92t-92 -225q0 -37 8 -73q-196 10 -366 98t-289 234q-43 -74 -43 -144zM256 1969h1888q106 0 181 -75t75 -181v-1888q0 -106 -75 -181t-181 -75h-1888q-106 0 -181 75t-75 181v1888q0 106 75 181t181 75z
" />
    <glyph glyph-name="uniE033" unicode="&#xe033;" 
d="M550 1190q0 -185 141 -280q-77 2 -144 40v-4q1 -114 73 -202t182 -110q-41 -11 -77 -11t-66 6q29 -95 111 -157t185 -64q-173 -136 -394 -136q-38 0 -76 4q223 -142 487 -142q407 0 671 294q147 164 206 397q27 107 26 213v41q94 68 159 164q-87 -38 -183 -50
q104 62 140 176q-94 -56 -202 -77q-94 100 -232 100q-86 0 -159 -42q-74 -42 -116 -116q-42 -73 -42 -159q0 -37 8 -73q-196 10 -366 98t-289 234q-43 -74 -43 -144zM352 1969h1696q146 0 249 -103t103 -249v-1696q0 -146 -103 -249t-249 -103h-1696q-146 0 -249 103
t-103 249v1696q0 146 103 249t249 103z" />
    <glyph glyph-name="uniE034" unicode="&#xe034;" 
d="M550 1190q0 -185 141 -280q-77 2 -144 40v-4q1 -114 73 -202t182 -110q-41 -11 -77 -11t-66 6q29 -95 111 -157t185 -64q-173 -136 -394 -136q-38 0 -76 4q223 -142 487 -142q407 0 671 294q147 164 206 397q27 107 26 213v41q94 68 159 164q-87 -38 -183 -50
q104 62 140 176q-94 -56 -202 -77q-94 100 -232 100q-86 0 -159 -42q-74 -42 -116 -116q-42 -73 -42 -159q0 -37 8 -73q-196 10 -366 98t-289 234q-43 -74 -43 -144zM837 1969h726q211 -1 307 -7t184 -34q106 -38 186 -118t110 -164t40 -173q10 -88 10 -341v-726
q0 -210 -6 -306t-35 -185q-39 -106 -119 -186t-186 -119q-88 -28 -184 -34t-307 -7h-726q-211 1 -307 7t-184 34q-106 39 -186 119t-119 186q-29 89 -35 185t-6 306v726q0 253 10 341q10 89 40 173t110 164t186 118q88 28 184 34t307 7z" />
    <glyph glyph-name="uniE035" unicode="&#xe035;" 
d="M550 1190q0 -185 141 -280q-77 2 -144 40v-4q1 -114 73 -202t182 -110q-41 -11 -77 -11t-66 6q29 -95 111 -157t185 -64q-173 -136 -394 -136q-38 0 -76 4q223 -142 487 -142q407 0 671 294q147 164 206 397q27 107 26 213v41q94 68 159 164q-87 -38 -183 -50
q104 62 140 176q-94 -56 -202 -77q-94 100 -229 100q-136 0 -228 -92t-92 -225q0 -37 8 -73q-196 10 -366 98t-289 234q-43 -74 -43 -144zM1200 1969q196 -1 379 -61t331 -171t258 -259q112 -148 172 -330q60 -183 60 -379t-60 -379q-60 -182 -172 -330q-110 -148 -258 -259
t-331 -171t-379 -61q-196 1 -379 61t-331 171t-258 259q-112 148 -172 330q-60 183 -60 379t60 379q60 182 172 330q110 148 258 259t331 171t379 61z" />
    <glyph glyph-name="uniE036" unicode="&#xe036;" 
d="M691 910q-141 95 -141 280q0 70 43 144q119 -146 289 -234t366 -98q-8 36 -8 86t25 110t67 102q92 92 228 92q135 0 229 -100q108 21 202 77q-36 -114 -140 -176q96 12 183 50q-65 -96 -159 -164v-41q2 -209 -101 -418t-310 -347q-206 -139 -481 -139t-498 142
q38 -4 76 -4q221 0 394 136q-103 2 -185 64t-111 157q30 -6 66 -6t77 11q-110 22 -182 110t-73 202v4q67 -38 144 -40z" />
    <glyph glyph-name="uniE037" unicode="&#xe037;" 
d="M2076 235h-1752v1068h1752v-1068z" />
    <glyph glyph-name="uniE03A" unicode="&#xe03a;" 
d="M1066 536q5 0 20 -2q139 -98 184 -148q46 -50 46 -134t-78 -146t-241 -63q-161 0 -261 70t-100 180q0 55 21 91q88 140 338 150q24 1 44 2h27zM1710 1062v-207h-206v-131h206v-206h132v206h206v131h-206v207h-132zM945 1479q54 1 102 -37q97 -76 133 -222q17 -64 17 -110
t-8 -86t-38 -70t-68 -46t-91 -16t-102 37q-48 37 -81 93q-65 109 -65 222q0 112 50 174q51 61 151 61zM1404 1192q0 164 -139 281h100q13 0 17 2q107 57 165 87h-477q-142 0 -246 -30t-183 -111q-79 -83 -96 -201t36 -221t153 -148t226 -32q-25 -60 -14 -108t54 -101
l-132 -12q-220 -30 -335 -133q-84 -72 -101 -187t70 -206q135 -141 416 -134t436 150q127 114 121 278q-3 80 -39 134t-67 82q-32 28 -59 50q-27 23 -46 38q-89 65 -97 93q-16 50 14 85q31 35 57 55q110 85 138 155q28 71 28 134zM2400 -431h-2400v2400h2400v-2400z" />
    <glyph glyph-name="uniE03B" unicode="&#xe03b;" 
d="M1066 536q5 0 20 -2q139 -98 184 -148q46 -50 46 -134t-78 -146t-241 -63q-161 0 -261 70t-100 180q0 55 21 91q88 140 338 150q24 1 44 2h27zM1710 1062v-207h-206v-131h206v-206h132v206h206v131h-206v207h-132zM945 1479q54 1 102 -37q97 -76 133 -222q17 -64 17 -110
t-8 -86t-38 -70t-68 -46t-91 -16t-102 37q-48 37 -81 93q-65 109 -65 222q0 112 50 174q51 61 151 61zM1404 1192q0 164 -139 281h100q13 0 17 2q107 57 165 87h-477q-142 0 -246 -30t-183 -111q-79 -83 -96 -201t36 -221t153 -148t226 -32q-25 -60 -14 -108t54 -101
l-132 -12q-220 -30 -335 -133q-84 -72 -101 -187t70 -206q135 -141 416 -134t436 150q127 114 121 278q-3 80 -39 134t-67 82q-32 28 -59 50q-27 23 -46 38q-89 65 -97 93q-16 50 14 85q31 35 57 55q110 85 138 155q28 71 28 134zM256 1969h1888q106 0 181 -75t75 -181
v-1888q0 -106 -75 -181t-181 -75h-1888q-106 0 -181 75t-75 181v1888q0 106 75 181t181 75z" />
    <glyph glyph-name="uniE03C" unicode="&#xe03c;" 
d="M1066 536q5 0 20 -2q139 -98 184 -148q46 -50 46 -134t-78 -146t-241 -63q-161 0 -261 70t-100 180q0 55 21 91q88 140 338 150q24 1 44 2h27zM1710 1062v-207h-206v-131h206v-206h132v206h206v131h-206v207h-132zM945 1479q54 1 102 -37q97 -76 133 -222q17 -64 17 -110
t-8 -86t-38 -70t-68 -46t-91 -16t-102 37q-48 37 -81 93q-65 109 -65 222q0 112 50 174q51 61 151 61zM1404 1192q0 164 -139 281h100q13 0 17 2q107 57 165 87h-477q-142 0 -246 -30t-183 -111q-79 -83 -96 -201t36 -221t153 -148t226 -32q-25 -60 -14 -108t54 -101
l-132 -12q-220 -30 -335 -133q-84 -72 -101 -187t70 -206q135 -141 416 -134t436 150q127 114 121 278q-3 80 -39 134t-67 82q-32 28 -59 50q-27 23 -46 38q-89 65 -97 93q-16 50 14 85q31 35 57 55q110 85 138 155q28 71 28 134zM352 1969h1696q146 0 249 -103t103 -249
v-1696q0 -146 -103 -249t-249 -103h-1696q-146 0 -249 103t-103 249v1696q0 146 103 249t249 103z" />
    <glyph glyph-name="uniE03D" unicode="&#xe03d;" 
d="M1066 536q5 0 20 -2q139 -98 184 -148q46 -50 46 -134t-78 -146t-241 -63q-161 0 -261 70t-100 180q0 55 21 91q88 140 338 150q24 1 44 2h27zM1710 1062v-207h-206v-131h206v-206h132v206h206v131h-206v207h-132zM945 1479q54 1 102 -37q97 -76 133 -222q17 -64 17 -110
t-8 -86t-38 -70t-68 -46t-91 -16t-102 37q-48 37 -81 93q-65 109 -65 222q0 112 50 174q51 61 151 61zM1404 1192q0 164 -139 281h100q13 0 17 2q107 57 165 87h-477q-142 0 -246 -30t-183 -111q-79 -83 -96 -201t36 -221t153 -148t226 -32q-25 -60 -14 -108t54 -101
l-132 -12q-220 -30 -335 -133q-84 -72 -101 -187t70 -206q135 -141 416 -134t436 150q127 114 121 278q-3 80 -39 134t-67 82q-32 28 -59 50q-27 23 -46 38q-89 65 -97 93q-16 50 14 85q31 35 57 55q110 85 138 155q28 71 28 134zM837 1969h726q211 -1 307 -7t184 -34
q106 -38 186 -118t110 -164t40 -173q10 -88 10 -341v-726q0 -210 -6 -306t-35 -185q-39 -106 -119 -186t-186 -119q-88 -28 -184 -34t-307 -7h-726q-211 1 -307 7t-184 34q-106 39 -186 119t-119 186q-29 89 -35 185t-6 306v726q0 253 10 341q10 89 40 173t110 164t186 118
q88 28 184 34t307 7z" />
    <glyph glyph-name="uniE03E" unicode="&#xe03e;" 
d="M1066 536q5 0 20 -2q139 -98 184 -148q46 -50 46 -134t-78 -146t-241 -63q-161 0 -261 70t-100 180q0 55 21 91q88 140 338 150q24 1 44 2h27zM1710 1062v-207h-206v-131h206v-206h132v206h206v131h-206v207h-132zM945 1479q54 1 102 -37q97 -76 133 -222q17 -64 17 -110
t-8 -86t-38 -70t-68 -46t-91 -16t-102 37q-48 37 -81 93q-65 109 -65 222q0 112 50 174q51 61 151 61zM1404 1192q0 164 -139 281h100q13 0 17 2q107 57 165 87h-477q-142 0 -246 -30t-183 -111q-79 -83 -96 -201t36 -221t153 -148t226 -32q-25 -60 -14 -108t54 -101
l-132 -12q-220 -30 -335 -133q-84 -72 -101 -187t70 -206q135 -141 416 -134t436 150q127 114 121 278q-3 80 -39 134t-67 82q-32 28 -59 50q-27 23 -46 38q-89 65 -97 93q-16 50 14 85q31 35 57 55q110 85 138 155q28 71 28 134zM1200 1969q196 -1 379 -61t331 -171
t258 -259q112 -148 172 -330q60 -183 60 -379t-60 -379q-60 -182 -172 -330q-110 -148 -258 -259t-331 -171t-379 -61q-196 1 -379 61t-331 171t-258 259q-112 148 -172 330q-60 183 -60 379t60 379q60 182 172 330q110 148 258 259t331 171t379 61z" />
    <glyph glyph-name="uniE03F" unicode="&#xe03f;" 
d="M636 293q0 -110 100 -180t261 -70q163 1 241 63t78 146t-50 138q-50 55 -180 144q-15 2 -20 2h-27q-20 -1 -45 -2q-249 -10 -337 -150q-21 -36 -21 -91zM1842 855h206v-131h-206v-206h-132v206h-206v131h206v207h132v-207zM945 1479q-100 0 -151 -61q-50 -61 -50 -136
q0 -149 64 -259q34 -56 82 -94q49 -37 102 -37q54 0 92 16q91 39 105 117q8 39 8 85t-17 110q-36 146 -133 222q-48 38 -102 37zM1404 1192q0 -63 -21 -116q-36 -90 -156 -181q-16 -12 -46 -46t-16 -84q8 -23 38 -47q29 -24 51 -41t30 -22q6 -5 14 -13t16 -12q8 -6 16 -14
t40 -35t66 -81q36 -54 39 -134q6 -163 -121 -278q-156 -142 -436 -150q-281 -7 -416 134q-86 90 -70 206q24 168 201 254q95 47 193 60q26 4 174 18q-43 53 -54 101t14 108q-126 -13 -226 32t-153 148t-36 221t96 201q79 81 183 111t246 30h477q-58 -30 -165 -87
q-4 -2 -17 -2h-100q139 -117 139 -281z" />
    <glyph glyph-name="uniE041" unicode="&#xe041;" 
d="M634 410q-88 0 -150 -62t-62 -150t62 -149q62 -62 150 -62t149 62q62 61 62 149t-62 150q-61 62 -149 62zM435 1026v-298q148 0 283 -58q134 -58 232 -154q98 -98 156 -233t57 -283h298q0 279 -138 514t-373 374q-235 138 -515 138zM435 1555v-298q384 0 697 -211
q314 -210 462 -556q98 -231 98 -490h298q0 424 -212 786q-100 170 -244 314t-314 243q-362 212 -785 212zM2400 1968v-2400h-2400v2400h2400z" />
    <glyph glyph-name="uniE042" unicode="&#xe042;" 
d="M634 410q-88 0 -150 -62t-62 -150t62 -149q62 -62 150 -62t149 62q62 61 62 149t-62 150q-61 62 -149 62zM435 1026v-298q148 0 283 -58q134 -58 232 -154q98 -98 156 -233t57 -283h298q0 279 -138 514t-373 374q-235 138 -515 138zM435 1555v-298q384 0 697 -211
q314 -210 462 -556q98 -231 98 -490h298q0 424 -212 786q-100 170 -244 314t-314 243q-362 212 -785 212zM256 1969h1888q106 0 181 -75t75 -181v-1888q0 -106 -75 -181t-181 -75h-1888q-106 0 -181 75t-75 181v1888q0 106 75 181t181 75z" />
    <glyph glyph-name="uniE043" unicode="&#xe043;" 
d="M634 410q-88 0 -150 -62t-62 -150t62 -149q62 -62 150 -62t149 62q62 61 62 149t-62 150q-61 62 -149 62zM435 1026v-298q148 0 283 -58q134 -58 232 -154q98 -98 156 -233t57 -283h298q0 279 -138 514t-373 374q-235 138 -515 138zM435 1555v-298q384 0 697 -211
q314 -210 462 -556q98 -231 98 -490h298q0 424 -212 786q-100 170 -244 314t-314 243q-362 212 -785 212zM352 1969h1696q146 0 249 -103t103 -249v-1696q0 -146 -103 -249t-249 -103h-1696q-146 0 -249 103t-103 249v1696q0 146 103 249t249 103z" />
    <glyph glyph-name="uniE044" unicode="&#xe044;" 
d="M634 410q-88 0 -150 -62t-62 -150t62 -149q62 -62 150 -62t149 62q62 61 62 149t-62 150q-61 62 -149 62zM435 1026v-298q148 0 283 -58q134 -58 232 -154q98 -98 156 -233t57 -283h298q0 279 -138 514t-373 374q-235 138 -515 138zM435 1555v-298q384 0 697 -211
q314 -210 462 -556q98 -231 98 -490h298q0 424 -212 786q-100 170 -244 314t-314 243q-362 212 -785 212zM837 1969h726q211 -1 307 -7t184 -34q106 -38 186 -118t110 -164t40 -173q10 -88 10 -341v-726q0 -210 -6 -306t-35 -185q-39 -106 -119 -186t-186 -119
q-88 -28 -184 -34t-307 -7h-726q-211 1 -307 7t-184 34q-106 39 -186 119t-119 186q-29 89 -35 185t-6 306v726q0 253 10 341q10 89 40 173t110 164t186 118q88 28 184 34t307 7z" />
    <glyph glyph-name="uniE045" unicode="&#xe045;" 
d="M634 410q-88 0 -150 -62t-62 -150t62 -149q62 -62 150 -62t149 62q62 61 62 149t-62 150q-61 62 -149 62zM435 1026v-298q148 0 283 -58q134 -58 232 -154q98 -98 156 -233t57 -283h298q0 279 -138 514t-373 374q-235 138 -515 138zM435 1555v-298q384 0 697 -211
q314 -210 462 -556q98 -231 98 -490h298q0 424 -212 786q-100 170 -244 314t-314 243q-362 212 -785 212zM1200 1969q196 -1 379 -61t331 -171t258 -259q112 -148 172 -330q60 -183 60 -379t-60 -379q-60 -182 -172 -330q-110 -148 -258 -259t-331 -171t-379 -61
q-196 1 -379 61t-331 171t-258 259q-112 148 -172 330q-60 183 -60 379t60 379q60 182 172 330q110 148 258 259t331 171t379 61z" />
    <glyph glyph-name="uniE046" unicode="&#xe046;" 
d="M618 410q72 0 122 -28q49 -28 77 -77t28 -107t-28 -106q-28 -49 -77 -77q-48 -28 -106 -28t-106 28t-78 77q-28 50 -28 122t62 134t134 62zM435 728v298q355 0 641 -226q174 -137 280 -347q105 -211 105 -453h-298q1 148 -57 283t-156 233t-232 154q-135 58 -283 58z
M435 1257v298q423 0 785 -212q170 -99 314 -243t244 -314q212 -361 212 -786h-298q0 344 -169 631q-169 288 -457 457q-287 169 -631 169z" />
    <glyph glyph-name="uniE048" unicode="&#xe048;" 
d="M2076 235h-1752v907l876 -633l876 633v-907z" />
    <glyph glyph-name="uniE049" unicode="&#xe049;" 
d="M1200 653l-900 650h1800z" />
    <glyph glyph-name="uniE04A" unicode="&#xe04a;" 
d="M324 235h1752v907l-876 -633l-876 633v-907zM300 1303l900 -650l900 650h-1800zM2400 -431h-2400v2400h2400v-2400z" />
    <glyph glyph-name="uniE04B" unicode="&#xe04b;" 
d="M324 235h1752v907l-876 -633l-876 633v-907zM300 1303l900 -650l900 650h-1800zM256 1969h1888q106 0 181 -75t75 -181v-1888q0 -106 -75 -181t-181 -75h-1888q-106 0 -181 75t-75 181v1888q0 106 75 181t181 75z" />
    <glyph glyph-name="uniE04C" unicode="&#xe04c;" 
d="M324 235h1752v907l-876 -633l-876 633v-907zM300 1303l900 -650l900 650h-1800zM352 1969h1696q146 0 249 -103t103 -249v-1696q0 -146 -103 -249t-249 -103h-1696q-146 0 -249 103t-103 249v1696q0 146 103 249t249 103z" />
    <glyph glyph-name="uniE04D" unicode="&#xe04d;" 
d="M324 235h1752v907l-876 -633l-876 633v-907zM300 1303l900 -650l900 650h-1800zM837 1969h726q211 -1 307 -7t184 -34q106 -38 186 -118t110 -164t40 -173q10 -88 10 -341v-726q0 -210 -6 -306t-35 -185q-39 -106 -119 -186t-186 -119q-88 -28 -184 -34t-307 -7h-726
q-211 1 -307 7t-184 34q-106 39 -186 119t-119 186q-29 89 -35 185t-6 306v726q0 253 10 341q10 89 40 173t110 164t186 118q88 28 184 34t307 7z" />
    <glyph glyph-name="uniE04E" unicode="&#xe04e;" 
d="M324 235h1752v907l-876 -633l-876 633v-907zM300 1303l900 -650l900 650h-1800zM1200 1969q196 -1 379 -61t331 -171t258 -259q112 -148 172 -330q60 -183 60 -379t-60 -379q-60 -182 -172 -330q-110 -148 -258 -259t-331 -171t-379 -61q-196 1 -379 61t-331 171
t-258 259q-112 148 -172 330q-60 183 -60 379t60 379q60 182 172 330q110 148 258 259t331 171t379 61z" />
    <glyph glyph-name="uniE04F" unicode="&#xe04f;" 
d="M2076 235h-1752v907l876 -633l876 633v-907zM1200 653l-900 650h1800z" />
    <glyph glyph-name="uniE061" unicode="&#xe061;" 
d="M1048 1369q91 1 174 -35t143 -96q59 -60 95 -143t36 -155t-12 -122t-34 -94t-52 -83q-58 -74 -150 -121t-176 -47q-85 0 -143 16t-107 45q-101 60 -162 162q-60 102 -60 209t36 190t95 143q60 60 143 96t174 35zM1048 1561q-130 -1 -248 -51t-205 -136t-137 -204
t-50 -249t50 -249t137 -204t205 -136t248 -51q201 0 365 114l381 -380q32 -33 78 -33t80 33q33 33 33 79t-33 79l-380 380q116 165 116 368q0 131 -50 249t-137 204t-205 136t-248 51zM2400 -431h-2400v2400h2400v-2400z" />
    <glyph glyph-name="uniE062" unicode="&#xe062;" 
d="M1048 1369q91 1 174 -35t143 -96q59 -60 95 -143t36 -155t-12 -122t-34 -94t-52 -83q-58 -74 -150 -121t-176 -47q-85 0 -143 16t-107 45q-101 60 -162 162q-60 102 -60 209t36 190t95 143q60 60 143 96t174 35zM1048 1561q-130 -1 -248 -51t-205 -136t-137 -204
t-50 -249t50 -249t137 -204t205 -136t248 -51q201 0 365 114l381 -380q32 -33 78 -33t80 33q33 33 33 79t-33 79l-380 380q116 165 116 368q0 131 -50 249t-137 204t-205 136t-248 51zM256 1969h1888q106 0 181 -75t75 -181v-1888q0 -106 -75 -181t-181 -75h-1888
q-106 0 -181 75t-75 181v1888q0 106 75 181t181 75z" />
    <glyph glyph-name="uniE063" unicode="&#xe063;" 
d="M1048 1369q91 1 174 -35t143 -96q59 -60 95 -143t36 -155t-12 -122t-34 -94t-52 -83q-58 -74 -150 -121t-176 -47q-85 0 -143 16t-107 45q-101 60 -162 162q-60 102 -60 209t36 190t95 143q60 60 143 96t174 35zM1048 1561q-130 -1 -248 -51t-205 -136t-137 -204
t-50 -249t50 -249t137 -204t205 -136t248 -51q201 0 365 114l381 -380q32 -33 78 -33t80 33q33 33 33 79t-33 79l-380 380q116 165 116 368q0 131 -50 249t-137 204t-205 136t-248 51zM352 1969h1696q146 0 249 -103t103 -249v-1696q0 -146 -103 -249t-249 -103h-1696
q-146 0 -249 103t-103 249v1696q0 146 103 249t249 103z" />
    <glyph glyph-name="uniE064" unicode="&#xe064;" 
d="M1048 1369q91 1 174 -35t143 -96q59 -60 95 -143t36 -155t-12 -122t-34 -94t-52 -83q-58 -74 -150 -121t-176 -47q-85 0 -143 16t-107 45q-101 60 -162 162q-60 102 -60 209t36 190t95 143q60 60 143 96t174 35zM1048 1561q-130 -1 -248 -51t-205 -136t-137 -204
t-50 -249t50 -249t137 -204t205 -136t248 -51q201 0 365 114l381 -380q32 -33 78 -33t80 33q33 33 33 79t-33 79l-380 380q116 165 116 368q0 131 -50 249t-137 204t-205 136t-248 51zM837 1969h726q211 -1 307 -7t184 -34q106 -38 186 -118t110 -164t40 -173
q10 -88 10 -341v-726q0 -210 -6 -306t-35 -185q-39 -106 -119 -186t-186 -119q-88 -28 -184 -34t-307 -7h-726q-211 1 -307 7t-184 34q-106 39 -186 119t-119 186q-29 89 -35 185t-6 306v726q0 253 10 341q10 89 40 173t110 164t186 118q88 28 184 34t307 7z" />
    <glyph glyph-name="uniE065" unicode="&#xe065;" 
d="M1048 1369q91 1 174 -35t143 -96q59 -60 95 -143t36 -155t-12 -122t-34 -94t-52 -83q-58 -74 -150 -121t-176 -47q-85 0 -143 16t-107 45q-101 60 -162 162q-60 102 -60 209t36 190t95 143q60 60 143 96t174 35zM1048 1561q-130 -1 -248 -51t-205 -136t-137 -204
t-50 -249t50 -249t137 -204t205 -136t248 -51q201 0 365 114l381 -380q32 -33 78 -33t80 33q33 33 33 79t-33 79l-380 380q116 165 116 368q0 131 -50 249t-137 204t-205 136t-248 51zM1200 1969q196 -1 379 -61t331 -171t258 -259q112 -148 172 -330q60 -183 60 -379
t-60 -379q-60 -182 -172 -330q-110 -148 -258 -259t-331 -171t-379 -61q-196 1 -379 61t-331 171t-258 259q-112 148 -172 330q-60 183 -60 379t60 379q60 182 172 330q110 148 258 259t331 171t379 61z" />
    <glyph glyph-name="uniE066" unicode="&#xe066;" 
d="M1048 1369q-91 1 -174 -35t-143 -96q-59 -60 -95 -143t-36 -174t36 -174t95 -143q60 -60 143 -96t174 -35q91 -1 174 35t143 96q59 60 95 143t36 174t-36 174t-95 143q-60 60 -143 96t-174 35zM1048 1561q130 -1 248 -51t205 -136t137 -204t50 -249q0 -202 -116 -368
l380 -380q33 -33 33 -79t-33 -79q-34 -33 -80 -33t-78 33l-381 380q-164 -114 -365 -114q-130 1 -248 51t-205 136t-137 204t-50 249t50 249t137 204t205 136t248 51z" />
    <glyph glyph-name="uniE067" unicode="&#xe067;" 
d="M1048 1369q122 0 225 -60t163 -163t60 -225t-60 -225t-163 -163t-225 -60t-225 60t-163 163t-60 225t60 225t163 163t225 60z" />
    <glyph glyph-name="uniE069" unicode="&#xe069;" 
d="M1127 1282q37 -10 41 -22t-5 -15q-9 -1 -37 1t-76 -8q-102 -22 -182 -111q-80 -88 -93 -241q-4 -40 -27 -42q-25 -2 -41 38t-4 121t79 159t161 112q94 32 184 8z" />
    <glyph glyph-name="uniE071" unicode="&#xe071;" 
d="M1551 714h-702l351 521zM335 254l204 1l196 291h930l196 -291l204 -1l-865 1282zM2400 -431h-2400v2400h2400v-2400z" />
    <glyph glyph-name="uniE072" unicode="&#xe072;" 
d="M1200 1235l351 -521h-702zM1200 1536l-865 -1282l204 1l196 291h930l196 -291l204 -1zM256 1969h1888q106 0 181 -75t75 -181v-1888q0 -106 -75 -181t-181 -75h-1888q-106 0 -181 75t-75 181v1888q0 106 75 181t181 75z" />
    <glyph glyph-name="uniE073" unicode="&#xe073;" 
d="M1200 1235l351 -521h-702zM1200 1536l-865 -1282l204 1l196 291h930l196 -291l204 -1zM352 1969h1696q146 0 249 -103t103 -249v-1696q0 -146 -103 -249t-249 -103h-1696q-146 0 -249 103t-103 249v1696q0 146 103 249t249 103z" />
    <glyph glyph-name="uniE074" unicode="&#xe074;" 
d="M1200 1235l351 -521h-702zM1200 1536l-865 -1282l204 1l196 291h930l196 -291l204 -1zM837 1969h726q211 -1 307 -7t184 -34q106 -38 186 -118t110 -164t40 -173q10 -88 10 -341v-726q0 -210 -6 -306t-35 -185q-39 -106 -119 -186t-186 -119q-88 -28 -184 -34t-307 -7
h-726q-211 1 -307 7t-184 34q-106 39 -186 119t-119 186q-29 89 -35 185t-6 306v726q0 253 10 341q10 89 40 173t110 164t186 118q88 28 184 34t307 7z" />
    <glyph glyph-name="uniE075" unicode="&#xe075;" 
d="M1200 1235l351 -521h-702zM1200 1536l-865 -1282l204 1l196 291h930l196 -291l204 -1zM1200 1969q196 -1 379 -61t331 -171t258 -259q112 -148 172 -330q60 -183 60 -379t-60 -379q-60 -182 -172 -330q-110 -148 -258 -259t-331 -171t-379 -61q-196 1 -379 61t-331 171
t-258 259q-112 148 -172 330q-60 183 -60 379t60 379q60 182 172 330q110 148 258 259t331 171t379 61z" />
    <glyph glyph-name="uniE076" unicode="&#xe076;" 
d="M1200 1235l-351 -521h702zM1200 1536l865 -1282l-204 1l-196 291h-930l-196 -291l-204 -1z" />
    <glyph glyph-name="uniE099" unicode="&#xe099;" horiz-adv-x="12163" 
d="M3356 839l325 218l-728 485v-435zM3524 726l232 -154v311zM2953 346v-435l728 485l-325 218zM2365 614l-325 -218l728 -485v435zM2198 726l-233 157v-311zM2768 1107v435l-728 -485l325 -218zM2861 506l328 220l-328 221l-329 -221zM3900 320v-1l-988 -657
q-22 -16 -51 -16t-52 16l-988 657l-1 1v1q-3 3 -19 16q-17 14 -17 28t-3 17v4q-1 3 -1 10v661q0 8 1 11v4q0 4 4 12l9 22q3 3 4 5q0 1 10 11t12 10l989 660q52 34 103 0l988 -659q6 -1 13 -9q5 -8 7 -10l3 -3q1 -2 8 -9t7 -18l3 -12q0 -2 1 -4v-682q-3 -6 -3 -12l-1 -2v-2
q-2 -6 -8 -18q0 -9 -13 -18q-13 -10 -16 -13zM11880 1436h202v-1318q0 -31 -25 -66t-73 -36q-49 0 -81 38l-835 1001v-1039h-203v1319q0 32 19 58t49 37q30 10 61 2t50 -33l836 -1002v1039zM8046 828h339q83 0 143 60t60 143q0 84 -60 143t-143 59h-339v-405zM7944 1436h441
q167 0 285 -118t119 -288q-1 -168 -119 -286t-285 -119h-339v-609h-203v1319q0 41 30 71t71 30zM9348 118v1217q0 41 30 71t72 30h845v-203h-744v-405h474v-203h-474v-406h744v-203h-845q-42 0 -72 30t-30 72zM6281 118v1217q0 41 30 71t71 30h845v-203h-744v-405h473v-203
h-473v-406h744v-203h-845q-41 0 -71 30t-30 72zM4719 219h304q137 0 254 68t185 185t68 254t-68 254t-185 185t-254 68h-304v-1014zM4617 1436h406q143 0 275 -56t227 -152q95 -94 151 -226t57 -276q-1 -144 -57 -276t-151 -226q-95 -96 -227 -152t-275 -56h-406
q-41 0 -71 30t-30 72v1217q0 41 30 71t71 30zM854 1277q-150 0 -276 -74t-200 -201q-74 -128 -74 -258t44 -232t118 -174t175 -116q102 -44 213 -44q202 0 354 126l130 -153q-206 -176 -484 -176q-153 -1 -292 59t-240 160q-100 100 -160 240q-60 139 -60 292q0 152 60 292
t160 241q101 101 240 161t292 59q277 0 484 -177l-130 -154q-153 129 -354 129z" />
    <glyph glyph-name="uniE100" unicode="&#xe100;" 
d="M1264 507v-297l499 333l-223 149zM637 543l499 -333v297l-276 185zM1655 769l159 -107v214zM586 662l159 107l-159 107v-214zM974 769l226 -151l226 151l-226 151zM1264 1031l276 -185l223 149l-499 333v-297zM637 995l223 -149l276 185v297zM1200 27q-19 0 -35 11
l-679 452l-3 3l-4 3l-3 2l-3 4l-2 3l-3 3l-2 3l-2 5l-1 3l-2 4l-1 3l-1 6v3l-1 8v452l1 8v3l1 6l1 3l2 4l1 3l2 5l2 3l3 3l5 7l689 460q14 11 27 11q29 0 43 -11l679 -452l1 -1l3 -2l3 -3l3 -2l3 -4l2 -3l3 -3l2 -3l2 -5l1 -3l2 -4l1 -4l1 -5v-3l1 -8v-452l-1 -8v-3l-1 -6
l-1 -3l-2 -4l-1 -3l-2 -5l-2 -3l-3 -3l-5 -7l-3 -2l-3 -3l-683 -455q-16 -11 -35 -11zM1200 1772q-162 0 -316 -50t-277 -144q-123 -93 -216 -216q-93 -122 -143 -276t-51 -317q1 -163 51 -317t143 -276q93 -123 216 -216q123 -94 277 -144t316 -50t316 50t277 144
q123 93 216 216q93 122 143 276t51 317q-1 163 -51 317t-143 276q-93 123 -216 216q-123 94 -277 144t-316 50zM1200 1969q196 -1 379 -61t331 -171t258 -259q112 -148 172 -330q60 -183 60 -379t-60 -379q-60 -182 -172 -330q-110 -148 -258 -259t-331 -171t-379 -61
q-196 1 -379 61t-331 171t-258 259q-112 148 -172 330q-60 183 -60 379t60 379q60 182 172 330q110 148 258 259t331 171t379 61z" />
    <glyph glyph-name="uniE101" unicode="&#xe101;" 
d="M1763 543l-499 -333v297l276 185zM1136 507v-297l-499 333l223 149zM1814 662l-159 107l159 107v-214zM745 769l-159 -107v214zM1426 769l-226 -151l-226 151l226 151zM1763 995l-223 -149l-276 185v297zM1136 1031l-276 -185l-223 149l499 333v-297zM1200 1511
q-19 0 -35 -11l-679 -452l-3 -3l-4 -3l-3 -2l-3 -4l-2 -3l-3 -3l-2 -3l-2 -5l-1 -3l-2 -4l-1 -4l-1 -5v-3l-1 -8v-452l1 -8v-3l1 -6l1 -3l2 -4l1 -3l2 -5l2 -3l3 -3l5 -7l689 -460q16 -11 35 -11t35 11l679 452l1 1l3 2l3 3l3 2l3 4l2 3l3 3l2 3l2 5l1 3l2 4l1 3l1 6v3l1 8
v452l-1 8v3l-1 5l-1 4l-2 4l-1 3l-2 5l-2 3l-3 3l-5 7l-3 2l-3 3l-683 455q-16 11 -35 11zM2400 -431h-2400v2400h2400v-2400z" />
    <glyph glyph-name="uniE102" unicode="&#xe102;" 
d="M1763 543l-499 -333v297l276 185zM1136 507v-297l-499 333l223 149zM1814 662l-159 107l159 107v-214zM745 769l-159 -107v214zM1426 769l-226 -151l-226 151l226 151zM1763 995l-223 -149l-276 185v297zM1136 1031l-276 -185l-223 149l499 333v-297zM1200 1511
q-19 0 -35 -11l-679 -452l-3 -3l-4 -3l-3 -2l-3 -4l-2 -3l-3 -3l-2 -3l-2 -5l-1 -3l-2 -4l-1 -4l-1 -5v-3l-1 -8v-452l1 -8v-3l1 -6l1 -3l2 -4l1 -3l2 -5l2 -3l3 -3l5 -7l689 -460q16 -11 35 -11t35 11l679 452l1 1l3 2l3 3l3 2l3 4l2 3l3 3l2 3l2 5l1 3l2 4l1 3l1 6v3l1 8
v452l-1 8v3l-1 5l-1 4l-2 4l-1 3l-2 5l-2 3l-3 3l-5 7l-3 2l-3 3l-683 455q-16 11 -35 11zM256 1969h1888q106 0 181 -75t75 -181v-1888q0 -106 -75 -181t-181 -75h-1888q-106 0 -181 75t-75 181v1888q0 106 75 181t181 75z" />
    <glyph glyph-name="uniE103" unicode="&#xe103;" 
d="M1763 543l-499 -333v297l276 185zM1136 507v-297l-499 333l223 149zM1814 662l-159 107l159 107v-214zM745 769l-159 -107v214zM1426 769l-226 -151l-226 151l226 151zM1763 995l-223 -149l-276 185v297zM1136 1031l-276 -185l-223 149l499 333v-297zM1200 1511
q-19 0 -35 -11l-679 -452l-3 -3l-4 -3l-3 -2l-3 -4l-2 -3l-3 -3l-2 -3l-2 -5l-1 -3l-2 -4l-1 -4l-1 -5v-3l-1 -8v-452l1 -8v-3l1 -6l1 -3l2 -4l1 -3l2 -5l2 -3l3 -3l5 -7l689 -460q16 -11 35 -11t35 11l679 452l1 1l3 2l3 3l3 2l3 4l2 3l3 3l2 3l2 5l1 3l2 4l1 3l1 6v3l1 8
v452l-1 8v3l-1 5l-1 4l-2 4l-1 3l-2 5l-2 3l-3 3l-5 7l-3 2l-3 3l-683 455q-16 11 -35 11zM352 1969h1696q146 0 249 -103t103 -249v-1696q0 -146 -103 -249t-249 -103h-1696q-146 0 -249 103t-103 249v1696q0 146 103 249t249 103z" />
    <glyph glyph-name="uniE104" unicode="&#xe104;" 
d="M1763 543l-499 -333v297l276 185zM1136 507v-297l-499 333l223 149zM1814 662l-159 107l159 107v-214zM745 769l-159 -107v214zM1426 769l-226 -151l-226 151l226 151zM1763 995l-223 -149l-276 185v297zM1136 1031l-276 -185l-223 149l499 333v-297zM1200 1511
q-19 0 -35 -11l-679 -452l-1 -1l-3 -2l-3 -3l-3 -2l-3 -4l-2 -3l-3 -3l-2 -3l-2 -5l-1 -3l-2 -4l-1 -4l-1 -5v-3l-1 -8v-452l1 -8v-3l1 -6l1 -3l2 -4l1 -3l2 -5l2 -3l3 -3l5 -7l3 -2l3 -3l683 -455q16 -11 35 -11t35 11l679 452l1 1l3 2l3 3l3 2l3 4l2 3l3 3l2 3l2 5l1 3
l2 4l1 3l1 6v3l1 8v452l-1 8v3l-1 5l-1 4l-2 4l-1 3l-2 5l-2 3l-3 3l-5 7l-3 2l-3 3l-683 455q-16 11 -35 11zM837 1969h726q211 -1 307 -7t184 -34q106 -38 186 -118t110 -164t40 -173q10 -88 10 -341v-726q0 -210 -6 -306t-35 -185q-39 -106 -119 -186t-186 -119
q-88 -28 -184 -34t-307 -7h-726q-211 1 -307 7t-184 34q-106 39 -186 119t-119 186q-29 89 -35 185t-6 306v726q0 253 10 341q10 89 40 173t110 164t186 118q88 28 184 34t307 7z" />
    <glyph glyph-name="uniE105" unicode="&#xe105;" 
d="M1763 543l-499 -333v297l276 185zM1136 507v-297l-499 333l223 149zM1814 662l-159 107l159 107v-214zM745 769l-159 -107v214zM1426 769l-226 -151l-226 151l226 151zM1763 995l-223 -149l-276 185v297zM1136 1031l-276 -185l-223 149l499 333v-297zM1932 508l5 11l4 13
v3l1 8v452l-1 8v3l-9 23v1l-18 18l-679 452q-16 11 -35 11t-35 -11l-679 -452l-1 -1q-1 0 -4 -3q-9 -9 -10 -11l-3 -3q-5 -10 -5 -11l-2 -4q0 -3 -1 -3l-1 -6v-3l-1 -8v-452l1 -8v-3l4 -13q0 -5 10 -17q10 -11 12 -11l680 -453q16 -11 35 -11t35 11l679 452l1 1q11 9 14 14z
M1200 1969q196 -1 379 -61t331 -171t258 -259q112 -148 172 -330q60 -183 60 -379t-60 -379q-60 -182 -172 -330q-110 -148 -258 -259t-331 -171t-379 -61q-196 1 -379 61t-331 171t-258 259q-112 148 -172 330q-60 183 -60 379t60 379q60 182 172 330q110 148 258 259
t331 171t379 61z" />
    <glyph glyph-name="uniE106" unicode="&#xe106;" 
d="M1264 507v-297l499 333l-223 149zM637 543l499 -333v297l-276 185zM1655 769l159 -107v214zM586 662l159 107l-159 107v-214zM974 769l226 -151l226 151l-226 151zM1264 1031l276 -185l223 149l-499 333v-297zM637 995l223 -149l276 185v297zM1200 27q-19 0 -35 11
l-679 452l-3 3l-4 3l-3 2l-3 4l-2 3l-3 3l-2 3l-2 5l-1 3l-2 4l-1 3l-1 6v3l-1 8v452l1 8v3l1 6l1 3l2 4l1 3l2 5l2 3l3 3l5 7l689 460q14 11 27 11q29 0 43 -11l679 -452l1 -1l3 -2l3 -3l3 -2l3 -4l2 -3l3 -3l2 -3l2 -5l1 -3l2 -4l1 -4l1 -5v-3l1 -8v-452l-1 -8v-3l-1 -6
l-1 -3l-2 -4l-1 -3l-2 -5l-2 -3l-3 -3l-5 -7l-3 -2l-3 -3l-683 -455q-16 -11 -35 -11z" />
    <glyph glyph-name="uniE121" unicode="&#xe121;" 
d="M1200 0q-266 0 -473 163l17 31q89 158 281 294q132 94 306 155l5 2q117 -303 164 -584q-143 -61 -300 -61zM1480 681q124 19 204 12q173 -15 275 -46q-25 -159 -112 -293t-218 -222q-43 256 -149 549zM458 793q407 0 763 110q35 -68 63 -131l-31 -9q-189 -61 -365 -206
q-66 -55 -125 -122q-60 -68 -83 -101l-52 -78q-197 220 -197 513l1 24h26zM1365 953q223 91 363 231q45 45 66 73q172 -210 174 -480q-162 38 -378 35q-82 -1 -157 -10l-17 40q-23 54 -51 111zM1158 1021q-210 -55 -346 -69q-228 -25 -364 -25q38 177 150 319t274 218
q149 -202 286 -443zM1226 1538q118 0 248 -50t234 -142q-81 -114 -248 -208q-72 -40 -154 -70q-112 206 -238 380q-24 32 -32 46q-10 14 -17 22q89 22 207 22zM1230 -131q152 -1 320 71q166 72 286 192t192 288q72 166 72 349t-72 349t-192 288q-120 120 -286 192t-320 71
q-152 -1 -269 -33t-215 -90t-182 -141q-83 -83 -141 -181q-59 -98 -91 -216q-32 -117 -32 -239t32 -239q32 -118 91 -216q58 -98 141 -181q84 -83 182 -141t215 -90t269 -33zM2400 1969v-2400h-2400v2400h2400z" />
    <glyph glyph-name="uniE122" unicode="&#xe122;" 
d="M1200 0q-266 0 -473 163l17 31q89 158 281 294q132 94 306 155l5 2q117 -303 164 -584q-143 -61 -300 -61zM1480 681q244 38 479 -34q-25 -159 -112 -293t-218 -222q-43 256 -149 549zM458 793q407 0 763 110q35 -68 63 -131l-31 -9q-189 -61 -365 -206
q-66 -55 -125 -122q-60 -68 -83 -101l-52 -78q-197 220 -197 513l1 24h26zM1794 1257q172 -210 174 -480q-162 38 -378 35q-82 -1 -157 -10l-17 40q-23 54 -51 111q288 116 429 304zM872 1464q150 -202 286 -443q-210 -55 -346 -69q-228 -25 -364 -25q38 177 150 319
t274 218zM1190 1538q300 0 518 -192q-81 -114 -248 -208q-72 -40 -154 -70q-112 206 -238 380q-24 32 -32 46q-10 14 -17 22q89 22 171 22zM1230 1669q-152 -1 -269 -33t-215 -90t-182 -141q-83 -83 -141 -181q-59 -98 -91 -216q-32 -117 -32 -239t32 -239q32 -118 91 -216
q120 -203 325 -324q206 -121 452 -121q184 -1 350 71t286 192t192 288q72 166 72 349t-72 349t-192 288q-120 120 -286 192q-168 72 -320 71zM256 1969h1888q106 0 181 -75t75 -181v-1888q0 -106 -75 -181t-181 -75h-1888q-106 0 -181 75t-75 181v1888q0 106 75 181t181 75z
" />
    <glyph glyph-name="uniE123" unicode="&#xe123;" 
d="M1200 0q-266 0 -473 163l17 31q89 158 281 294q132 94 306 155l5 2q117 -303 164 -584q-143 -61 -300 -61zM1480 681q244 38 479 -34q-25 -159 -112 -293t-218 -222q-43 256 -149 549zM458 793q407 0 763 110q35 -68 63 -131l-31 -9q-189 -61 -365 -206
q-66 -55 -125 -122q-60 -68 -83 -101l-52 -78q-197 220 -197 513l1 24h26zM1794 1257q172 -210 174 -480q-162 38 -378 35q-82 -1 -157 -10l-17 40q-23 54 -51 111q288 116 429 304zM872 1464q150 -202 286 -443q-210 -55 -346 -69q-228 -25 -364 -25q38 177 150 319
t274 218zM1190 1538q300 0 518 -192q-81 -114 -248 -208q-72 -40 -154 -70q-112 206 -238 380q-24 32 -32 46q-10 14 -17 22q89 22 171 22zM1230 1669q-152 -1 -269 -33t-215 -90t-182 -141q-83 -83 -141 -181q-59 -98 -91 -216q-32 -117 -32 -239t32 -239q32 -118 91 -216
q120 -203 325 -324q206 -121 452 -121q184 -1 350 71t286 192t192 288q72 166 72 349t-72 349t-192 288q-120 120 -286 192q-168 72 -320 71zM352 1969h1696q146 0 249 -103t103 -249v-1696q0 -146 -103 -249t-249 -103h-1696q-146 0 -249 103t-103 249v1696q0 146 103 249
t249 103z" />
    <glyph glyph-name="uniE124" unicode="&#xe124;" 
d="M1200 0q-266 0 -473 163l17 31q89 158 281 294q132 94 306 155l5 2q117 -303 164 -584q-143 -61 -300 -61zM1480 681q244 38 479 -34q-25 -159 -112 -293t-218 -222q-43 256 -149 549zM458 793q407 0 763 110q35 -68 63 -131l-31 -9q-189 -61 -365 -206
q-66 -55 -125 -122q-60 -68 -83 -101l-52 -78q-197 220 -197 513l1 24h26zM1794 1257q172 -210 174 -480q-162 38 -378 35q-82 -1 -157 -10l-17 40q-23 54 -51 111q288 116 429 304zM872 1464q150 -202 286 -443q-210 -55 -346 -69q-228 -25 -364 -25q38 177 150 319
t274 218zM1190 1538q300 0 518 -192q-81 -114 -248 -208q-72 -40 -154 -70q-112 206 -238 380q-24 32 -32 46q-10 14 -17 22q89 22 171 22zM1230 1669q-152 -1 -269 -33t-215 -90t-182 -141q-83 -83 -141 -181q-59 -98 -91 -216q-32 -117 -32 -239t32 -239q32 -118 91 -216
q120 -203 325 -324q206 -121 452 -121q184 -1 350 71t286 192t192 288q72 166 72 349t-72 349t-192 288q-120 120 -286 192q-168 72 -320 71zM837 1969h726q211 -1 307 -7t184 -34q106 -38 186 -118t110 -164t40 -173q10 -88 10 -341v-726q0 -210 -6 -306t-35 -185
q-39 -106 -119 -186t-186 -119q-88 -28 -184 -34t-307 -7h-726q-211 1 -307 7t-184 34q-106 39 -186 119t-119 186q-29 89 -35 185t-6 306v726q0 253 10 341q10 89 40 173t110 164t186 118q88 28 184 34t307 7z" />
    <glyph glyph-name="uniE125" unicode="&#xe125;" 
d="M1200 0q-266 0 -473 163l17 31q89 158 281 294q132 94 306 155l5 2q117 -303 164 -584q-143 -61 -300 -61zM1480 681q244 38 479 -34q-25 -159 -112 -293t-218 -222q-43 256 -149 549zM458 793q407 0 763 110q35 -68 63 -131l-31 -9q-189 -61 -365 -206
q-66 -55 -125 -122q-60 -68 -83 -101l-52 -78q-197 220 -197 513l1 24h26zM1794 1257q172 -210 174 -480q-162 38 -378 35q-82 -1 -157 -10l-17 40q-23 54 -51 111q288 116 429 304zM872 1464q150 -202 286 -443q-210 -55 -346 -69q-228 -25 -364 -25q38 177 150 319
t274 218zM1190 1538q300 0 518 -192q-81 -114 -248 -208q-72 -40 -154 -70q-112 206 -238 380q-24 32 -32 46q-10 14 -17 22q89 22 171 22zM1230 1669q-152 -1 -269 -33t-215 -90t-182 -141q-83 -83 -141 -181q-59 -98 -91 -216q-32 -117 -32 -239t32 -239q32 -118 91 -216
q120 -203 325 -324q206 -121 452 -121q184 -1 350 71t286 192t192 288q72 166 72 349t-72 349t-192 288q-120 120 -286 192q-168 72 -320 71zM1200 1969q196 -1 379 -61t331 -171t258 -259q112 -148 172 -330q60 -183 60 -379t-60 -379q-60 -182 -172 -330
q-110 -148 -258 -259t-331 -171t-379 -61q-196 1 -379 61t-331 171t-258 259q-112 148 -172 330q-60 183 -60 379t60 379q60 182 172 330q110 148 258 259t331 171t379 61z" />
    <glyph glyph-name="uniE126" unicode="&#xe126;" 
d="M727 163q209 -163 473 -163q157 0 300 61q-47 281 -164 584q-133 -53 -193 -85q-61 -32 -118 -72t-108 -86q-79 -72 -138 -156zM1480 681q106 -293 149 -549q131 88 218 222t112 293q-152 47 -335 45q-74 0 -144 -11zM1221 903q-371 -110 -763 -110h-26l-1 -24
q0 -293 197 -513l16 26q106 165 269 295t340 186l31 9q-28 63 -63 131zM1794 1257q-88 -119 -268 -225q-76 -44 -161 -79q28 -57 51 -111l17 -40q279 34 535 -25q-2 270 -174 480zM1158 1021q-137 241 -286 443q-162 -76 -274 -218t-150 -319q348 0 710 94zM1200 1538
q-92 0 -181 -22q150 -200 287 -448q239 88 373 242q17 20 21 26t8 10q-219 192 -508 192zM2100 769q0 -183 -72 -349t-192 -288q-120 -120 -286 -192t-320 -71q-152 1 -269 33t-215 90q-203 120 -325 325q-121 206 -121 452q0 313 198 563q120 152 304 245q185 92 383 92
q199 1 365 -71t286 -192t192 -288q72 -166 72 -349z" />
    <glyph glyph-name="uniE127" unicode="&#xe127;" 
d="M2096 769q0 -182 -71 -348t-191 -286t-286 -191t-348 -71t-348 71t-286 191t-191 286t-71 348t71 348t191 286t286 191t348 71t348 -71t286 -191t191 -286t71 -348z" />
    <glyph glyph-name="uniE128" unicode="&#xe128;" 
d="M1212 1430q172 0 314 -56t217 -147q24 25 35 41l14 21l45 -56q-27 -36 -56 -66q25 -52 25 -106q0 -101 -80 -186t-216 -134l13 -35q58 6 127 6q174 0 330 -52l-12 -68l-24 8q-132 44 -304 44q-47 0 -93 -5q87 -254 128 -485l3 -12l-62 -43l-5 29q-40 233 -133 502
q-69 -12 -131 -33q-269 -94 -448 -282q-73 -77 -98 -120q-24 -43 -29 -52l-12 -28q-39 28 -52 42l-1 8q44 89 137 192q191 204 480 304q63 22 130 35l-9 24q-111 -29 -233 -29q-208 0 -370 81q-203 -28 -384 -28l-46 1l1 68h19l27 -1q135 0 290 17q-131 102 -131 232
q0 85 58 160t160 127t229 71q-35 51 -62 85l-17 24l28 7l45 9q37 -47 83 -116q35 2 70 2z" />
    <glyph glyph-name="uniE129" unicode="&#xe129;" 
d="M2048 -344q0 -50 -234 -85t-566 -35t-566 35t-234 85t234 85t566 35t566 -35t234 -85z" />
    <glyph glyph-name="uniE151" unicode="&#xe151;" 
d="M0 1969h2400v-2400h-2400v2400zM1656 393q156 0 266 110t110 266t-110 266t-266 110t-266 -110t-110 -266t110 -266t266 -110zM744 393q156 0 266 110t110 266t-110 266t-266 110t-266 -110t-110 -266t110 -266t266 -110z" />
    <glyph glyph-name="uniE152" unicode="&#xe152;" 
d="M1656 1145q-156 0 -266 -110t-110 -266t110 -266t266 -110t266 110t110 266t-110 266t-266 110zM744 1145q-156 0 -266 -110t-110 -266t110 -266t266 -110t266 110t110 266t-110 266t-266 110zM256 1969h1888q106 0 181 -75t75 -181v-1888q0 -106 -75 -181t-181 -75
h-1888q-106 0 -181 75t-75 181v1888q0 106 75 181t181 75z" />
    <glyph glyph-name="uniE153" unicode="&#xe153;" 
d="M1656 1145q-156 0 -266 -110t-110 -266t110 -266t266 -110t266 110t110 266t-110 266t-266 110zM744 1145q-156 0 -266 -110t-110 -266t110 -266t266 -110t266 110t110 266t-110 266t-266 110zM352 1969h1696q146 0 249 -103t103 -249v-1696q0 -146 -103 -249t-249 -103
h-1696q-146 0 -249 103t-103 249v1696q0 146 103 249t249 103z" />
    <glyph glyph-name="uniE154" unicode="&#xe154;" 
d="M1656 1145q-156 0 -266 -110t-110 -266t110 -266t266 -110t266 110t110 266t-110 266t-266 110zM744 1145q-156 0 -266 -110t-110 -266t110 -266t266 -110t266 110t110 266t-110 266t-266 110zM837 1969h726q211 -1 307 -7t184 -34q106 -38 186 -118t110 -164t40 -173
q10 -88 10 -341v-726q0 -210 -6 -306t-35 -185q-39 -106 -119 -186t-186 -119q-88 -28 -184 -34t-307 -7h-726q-211 1 -307 7t-184 34q-106 39 -186 119t-119 186q-29 89 -35 185t-6 306v726q0 253 10 341q10 89 40 173t110 164t186 118q88 28 184 34t307 7z" />
    <glyph glyph-name="uniE155" unicode="&#xe155;" 
d="M1656 1145q-156 0 -266 -110t-110 -266t110 -266t266 -110t266 110t110 266t-110 266t-266 110zM744 1145q-156 0 -266 -110t-110 -266t110 -266t266 -110t266 110t110 266t-110 266t-266 110zM1200 1969q196 -1 379 -61t331 -171t258 -259q112 -148 172 -330
q60 -183 60 -379t-60 -379q-60 -182 -172 -330q-110 -148 -258 -259t-331 -171t-379 -61q-196 1 -379 61t-331 171t-258 259q-112 148 -172 330q-60 183 -60 379t60 379q60 182 172 330q110 148 258 259t331 171t379 61z" />
    <glyph glyph-name="uniE156" unicode="&#xe156;" 
d="M1656 1145q156 0 266 -110t110 -266t-110 -266t-266 -110t-266 110t-110 266t110 266t266 110zM744 1145q156 0 266 -110t110 -266t-110 -266t-266 -110t-266 110t-110 266t110 266t266 110z" />
    <glyph glyph-name="uniE157" unicode="&#xe157;" 
d="M744 1145q156 0 266 -110t110 -266t-110 -266t-266 -110t-266 110t-110 266t110 266t266 110z" />
    <glyph glyph-name="uniE158" unicode="&#xe158;" 
d="M1656 1145q156 0 266 -110t110 -266t-110 -266t-266 -110t-266 110t-110 266t110 266t266 110z" />
    <glyph glyph-name="uniE173" unicode="&#xe173;" 
d="M1206 1111q48 1 113 5q144 10 223 7q79 -2 138 -55q99 -89 99 -198q-1 -170 -79 -244q-58 -55 -113 -71q-94 -27 -182 -33q-89 -5 -181 -5q-92 -1 -150 3t-120 14t-108 26q-214 74 -214 301q0 117 98 206q56 52 136 55t186 -4t154 -7z" />
    <glyph glyph-name="uniE174" unicode="&#xe174;" 
d="M1540 1023q-40 0 -68 -23q-60 -50 -60 -134q0 -85 35 -135t85 -50t84 50t34 121t-34 121t-76 50zM886 1023q-40 0 -76 -50q-35 -50 -35 -121t35 -121t84 -50t84 50t35 109t-16 98q-15 39 -43 62t-68 23zM1206 1111q48 1 113 5q144 10 223 7q79 -2 138 -55q99 -89 99 -198
q-1 -170 -79 -244q-58 -55 -113 -71q-94 -27 -182 -33q-89 -5 -181 -5q-92 -1 -150 3t-120 14t-108 26q-214 74 -214 301q0 117 98 206q56 52 136 55t186 -4t154 -7z" />
    <glyph glyph-name="uniE175" unicode="&#xe175;" 
d="M1208 594q16 0 30 13t16 20q5 18 23 10q18 -7 -7 -40q-25 -34 -60 -34q-35 1 -55 21t-22 32q-4 20 10 23q13 4 15 -6q3 -11 7 -17q3 -6 15 -14t28 -8zM1169 699q1 45 43 45q12 0 22 -11q12 -11 12 -27t-12 -26q-12 -12 -24 -12q-13 0 -27 8t-14 23zM1531 965q32 0 55 -33
t23 -80t-23 -80t-55 -33q-33 0 -55 33t-22 80t22 80t55 33zM888 965q26 0 44 -15q38 -33 39 -89q-1 -56 -23 -89t-54 -33t-54 33t-23 80q1 47 23 80t48 33z" />
    <glyph glyph-name="uniE176" unicode="&#xe176;" 
d="M1063 -81q0 -83 -59 -118q-16 -10 -10 -30t54 -13q36 0 63 24t46 52q19 29 27 96v9h43v-9q6 -74 29 -100q40 -47 83 -63q43 -17 62 -6q38 21 -4 47q-21 12 -35 48t-14 68v12q29 -2 43 -2q8 -114 126 -127q71 -10 79 4q15 28 -27 41q-50 18 -60 72q185 -20 297 -59
t112 -84t-95 -82t-259 -59t-356 -21q-192 -1 -356 21t-259 59t-95 82t110 83t292 59q-10 -43 -35 -62q-44 -22 -51 -31t2 -21q12 -10 50 -6q38 3 40 5t10 4q30 6 64 35q34 30 40 86q21 1 43 3v-17zM437 493q1 20 25 20q24 -1 24 -19q0 -8 -8 -13q-8 -6 -16 -6q-10 0 -18 6
t-7 12zM489 464q0 18 24 19q24 -1 24 -19q1 -8 -7 -13q-8 -6 -18 -6t-16 6q-7 5 -7 13zM580 359q-24 1 -24 19t24 18t25 -18q-1 -18 -25 -19zM592 334q0 18 24 19q24 -1 24 -19q0 -8 -8 -13q-8 -6 -16 -6q-10 0 -17 6q-7 5 -7 13zM640 294q0 18 19 18t25 -7q5 -7 5 -13
q1 -6 -7 -12t-18 -5q-24 1 -24 19zM862 296q24 0 25 -18q1 -8 -7 -14t-18 -6t-16 6q-8 6 -8 14q0 18 24 18zM754 269q0 -19 -24 -19t-25 19q1 19 25 19t24 -19zM798 285q24 -1 24 -19q0 -8 -8 -13q-8 -6 -16 -6q-10 0 -18 6q-8 5 -7 13q1 18 25 19zM407 341q-32 0 -32 43
q0 12 32 74q31 -60 31 -70v-17q-1 -12 -10 -21t-21 -9zM527 424q0 18 24 18t24 -18q1 -8 -7 -14t-18 -6t-16 6q-7 6 -7 14z" />
    <glyph glyph-name="uniE177" unicode="&#xe177;" 
d="M818 266q0 15 -20 15t-21 -15q1 -15 21 -15t20 15zM750 269q0 15 -20 15t-21 -15q1 -15 21 -15t20 15zM883 277q-1 15 -21 15t-20 -15t20 -15t21 15zM685 294q-1 14 -21 14t-20 -14t20 -15q20 1 21 15zM636 334q0 15 -20 15t-20 -15t20 -15t20 15zM601 378q-1 14 -21 14
t-20 -14t20 -15q20 1 21 15zM550 409q20 0 21 15q-1 15 -21 15t-20 -15t20 -15zM533 464q0 15 -20 15t-20 -15t20 -15t20 15zM482 494q0 15 -20 15t-21 -15q1 -15 21 -15t20 15zM-41 633q-6 0 -7 7t5 9q242 79 552 90q-11 22 -20 47q-331 16 -535 -33h-2q-14 0 -7 13
q1 3 5 4q202 47 533 32l-9 27q-33 105 -33 234q0 189 124 321q-56 143 12 318q1 2 17 4q62 7 191 -55q61 -29 122 -73q151 40 299 40t300 -40q108 70 174 96t124 33l30 3q71 -182 14 -326q124 -139 124 -321q0 -144 -41 -260q61 3 112 3q240 5 416 -36q8 -3 7 -10
q-2 -7 -9 -7h-2q-205 49 -530 33q-9 -25 -21 -47q308 -12 548 -90q9 -2 6 -9q-2 -7 -8 -7h-3q-241 79 -551 90q-92 -163 -310 -224q-63 -16 -172 -29q38 -31 66 -86t28 -127v-305q2 -1 0 -8q-3 -12 10 -45t51 -47q20 0 30 -24q3 -7 -3 -18t-55 -6q-74 8 -112 38
q-38 29 -38 107v232q1 36 -11 72q-12 37 -32 52v-381q0 -33 14 -68q14 -36 34 -48t22 -24t-12 -20t-32 -6t-30 6q-108 33 -117 166v392h-43v-392q-12 -118 -92 -160q-21 -11 -44 -12q-50 -8 -56 16q-2 16 12 26t22 17q6 7 11 15t9 17t6 17q10 36 11 55v387q-39 -27 -42 -102
l-1 -25v-235q0 -48 -17 -70q-46 -59 -99 -67q0 -7 -41 -6t-45 5q-12 10 -2 24l49 29q34 25 38 91v213q-217 -45 -318 71q-23 26 -32 48l-9 21q-43 112 -115 153q-69 46 -23 60q10 3 20 3l10 1q61 -6 102 -41q40 -35 61 -71q21 -37 51 -63q30 -25 60 -35q97 -30 201 18
q18 88 86 140q-364 38 -480 253q-312 -11 -555 -90h-3z" />
    <glyph glyph-name="uniE178" unicode="&#xe178;" 
d="M798 281q-20 0 -21 -15q1 -15 21 -15t20 15t-20 15zM709 269q1 -15 21 -15t20 15t-20 15t-21 -15zM842 277q0 -15 20 -15t21 15q-1 15 -21 15t-20 -15zM644 294q0 -14 20 -15q20 1 21 15q-1 14 -21 14t-20 -14zM596 334q0 -15 20 -15t20 15t-20 15t-20 -15zM580 392
q-20 0 -20 -14t20 -15q20 1 21 15q-1 14 -21 14zM550 439q-20 0 -20 -15t20 -15t21 15q-1 15 -21 15zM493 464q0 -15 20 -15t20 15t-20 15t-20 -15zM441 494q1 -15 21 -15t20 15t-20 15t-21 -15zM1201 517q69 1 109 1t95 4q56 4 91 10q34 7 78 19t71 30q74 50 105 117
q30 67 30 174t-100 196q-56 52 -137 55q-80 2 -185 -5t-150 -7q-45 -1 -99 3q-55 4 -93 7q-100 8 -170 -2q-70 -9 -117 -52q-98 -89 -98 -197q0 -185 127 -267q80 -52 169 -65q89 -14 147 -18t127 -3zM1063 308q-43 -29 -43 -122v-240q0 -48 -17 -70q-46 -59 -99 -67
q0 -7 -41 -6t-45 5q-12 10 -2 24l49 29q34 25 38 91v213q-217 -45 -318 71q-23 26 -32 48l-9 21q-43 112 -115 153q-69 46 -23 60q10 3 20 3l10 1q61 -6 102 -41q40 -35 59 -68q19 -35 45 -59t50 -36t53 -16q81 -14 166 28q18 88 86 140q-364 38 -480 253q-312 -11 -555 -90
h-3q-6 0 -7 7t5 9q242 79 552 90q-11 22 -20 47q-332 15 -535 -33h-2q-14 0 -7 13q1 3 5 4q202 47 533 32l-9 27q-33 105 -33 234q0 189 124 321q-56 143 12 318q1 2 17 4q62 7 191 -55q61 -29 122 -73q151 40 299 40t300 -40q108 70 174 96t124 33l30 3q71 -182 14 -326
q124 -139 124 -321q0 -144 -41 -260q61 3 112 3q240 5 416 -36q8 -3 7 -10q-2 -7 -9 -7h-2q-206 49 -530 33q-9 -25 -21 -47q308 -12 548 -90q9 -2 6 -9q-2 -7 -8 -7h-3q-241 79 -551 90q-94 -167 -310 -224q-64 -16 -172 -29q38 -31 66 -86t28 -127v-305q2 -1 0 -8
q-3 -12 10 -45t51 -47q20 0 30 -24q3 -7 -3 -18t-55 -6q-74 8 -112 38q-38 29 -38 107v232q1 36 -11 72q-12 37 -32 52v-381q0 -33 14 -68q14 -36 34 -48t22 -24t-12 -20t-32 -6t-30 6q-108 33 -117 166v392h-43v-392q-12 -118 -92 -160q-21 -11 -44 -12q-50 -8 -56 16
q-2 17 19 31q43 25 52 110v393z" />
    <glyph glyph-name="uniE179" unicode="&#xe179;" 
d="M777 266q1 -15 21 -15t20 15t-20 15t-21 -15zM709 269q1 -15 21 -15t20 15t-20 15t-21 -15zM842 277q0 -15 20 -15t21 15q-1 15 -21 15t-20 -15zM1391 181q1 36 -11 72q-12 37 -32 52v-381q0 -33 14 -68q14 -36 32 -46t22 -22q17 23 44 34q-67 32 -69 120v239zM1063 -79
v387q-39 -27 -42 -102l-1 -25v-237q-2 -78 -67 -116l-15 -8q33 -15 53 -41l1 1q1 14 14 22q14 8 20 15t11 15t9 17t6 17q10 36 11 55zM685 294q-1 14 -21 14t-20 -14t20 -15q20 1 21 15zM596 334q0 -15 20 -15t20 15t-20 15t-20 -15zM580 392q-20 0 -20 -14t20 -15
q20 1 21 15q-1 14 -21 14zM571 424q-1 15 -21 15t-20 -15t20 -15t21 15zM493 464q0 -15 20 -15t20 15t-20 15t-20 -15zM441 494q1 -15 21 -15t20 15t-20 15t-21 -15zM1780 872q0 107 -100 196q-56 52 -137 55q-80 2 -185 -5q-104 -7 -152 -7q-48 1 -114 5q-146 10 -226 6
q-79 -3 -137 -55q-98 -89 -98 -197q1 -270 285 -330q112 -24 233 -23t161 1t95 4q56 4 91 10q34 7 78 19t71 30q74 50 105 117q30 67 30 174zM-41 633q-6 0 -7 7t5 9q242 79 552 90q-11 22 -20 47q-332 15 -535 -33h-2q-14 0 -7 13q1 3 5 4q202 47 533 32l-9 27
q-33 105 -33 234q0 189 124 321q-56 143 12 318q1 2 17 4q62 7 191 -55q61 -29 122 -73q151 40 299 40t300 -40q108 70 174 96t124 33l30 3q71 -182 14 -326q124 -139 124 -321q0 -144 -41 -260q61 3 112 3q240 5 416 -36q8 -3 7 -10q-2 -7 -9 -7h-2q-206 49 -530 33
q-9 -25 -21 -47q308 -12 548 -90q9 -2 6 -9q-2 -7 -8 -7h-3q-241 79 -551 90q-92 -163 -310 -224q-64 -16 -172 -29q38 -31 66 -86t28 -127v-305q2 -1 0 -8q-3 -12 10 -45t55 -48q3 -1 5 -2l6 -3t9 -7q6 -7 6 -13t-1 -10t-3 -7l-5 -5q-6 -6 -11 -8q-6 -2 -10 -4h-1
q-62 -23 -62 -92v-58q-40 -4 -116 -10v63q0 27 6 50q-40 -24 -50 -115q-58 -3 -120 -3q9 107 89 150q-80 43 -88 151v394h-43v-392q-12 -113 -82 -154q68 -44 80 -149q-2 0 -120 3q-3 41 -18 73t-35 44q10 -24 10 -52v-62q-43 2 -117 10v46q0 53 -38 91l-16 9q-51 18 -34 43
l51 29q38 28 38 85v219q-217 -45 -318 71q-23 26 -32 48l-9 21q-43 112 -115 153q-69 46 -23 60q10 3 20 3l10 1q61 -6 102 -41q40 -35 61 -71q21 -37 51 -63q30 -25 60 -35q97 -30 201 18q18 88 86 140q-364 38 -480 253q-312 -11 -555 -90h-3z" />
    <glyph glyph-name="uniE17A" unicode="&#xe17a;" 
d="M2400 1969v-2400h-807q12 12 4 25q-8 12 -27 18q-63 21 -63 92l1 8v305q0 109 -68 187q-12 14 -26 26q108 14 178 32t144 60t108 86q65 82 87 155q41 116 41 260q0 182 -124 321q57 144 -14 326l-30 -3q-58 -7 -124 -33t-174 -96q-152 40 -300 40t-299 -40
q-61 44 -149 86t-167 43q-9 -3 -11 -3t-3 -2q-68 -175 -12 -318q-124 -132 -124 -321q-1 -129 29 -221t47 -119q116 -215 480 -253q-69 -54 -86 -140q-79 -37 -125 -33q-46 5 -76 15q-66 21 -114 101q-32 63 -91 89q-59 25 -85 19t-30 -12q-12 -16 39 -51q68 -34 118 -160
q61 -154 266 -146q43 2 90 13v-213q0 -21 -11 -54q-11 -32 -43 -46q-55 -21 -33 -43h-816v2400h2400zM1227 82v-392q5 -77 46 -121h-133q36 44 44 121v392h43zM1391 -50v-241q0 -121 112 -140h-107q-20 13 -34 48t-14 67v381q26 -20 35 -59q8 -40 8 -56zM1063 -316
q1 -28 -13 -65q-14 -36 -33 -50h-99q64 22 90 79q12 26 12 58v235q0 37 12 75t31 52v-384z" />
    <glyph glyph-name="uniE17B" unicode="&#xe17b;" 
d="M1348 -316v381q39 -29 42 -101l1 -23v-232q0 -121 112 -140h-107q-30 20 -39 60q-9 41 -9 55zM1063 -316q1 -28 -13 -65q-14 -36 -33 -50h-99q64 22 90 79q12 26 12 58v246q0 49 16 78t27 38v-384zM1227 82v-392q5 -77 46 -121h-133q36 44 44 121v392h43zM256 1969h1888
q106 0 181 -75t75 -181v-1888q0 -106 -75 -181t-181 -75h-551q12 12 4 25q-8 12 -27 18q-63 21 -63 92l1 8v305q0 103 -60 179q-16 20 -34 34q108 14 178 32t144 60t108 86q65 82 87 155q41 116 41 260q0 182 -124 321q57 144 -14 326l-30 -3q-58 -7 -124 -33t-174 -96
q-152 40 -300 40t-299 -40q-61 44 -149 86t-167 43q-3 -1 -5 -1q-7 -2 -9 -4q-68 -175 -12 -318q-124 -132 -124 -321q-1 -129 29 -221t47 -119q116 -215 480 -253q-69 -54 -86 -140q-79 -37 -125 -33q-46 5 -76 15q-66 21 -114 101q-32 63 -91 89q-59 25 -85 19t-30 -12
q-12 -16 39 -51q70 -35 115 -153q2 -4 5 -11t15 -28q12 -20 28 -36q62 -56 110 -66q119 -23 201 1v-213q0 -21 -11 -54q-11 -32 -43 -46q-55 -21 -33 -43h-560q-106 0 -181 75t-75 181v1888q0 106 75 181t181 75z" />
    <glyph glyph-name="uniE17C" unicode="&#xe17c;" 
d="M1348 -316v381q39 -29 42 -101l1 -23v-232q0 -121 112 -140h-107q-30 20 -39 60q-9 41 -9 55zM1063 -316q1 -28 -13 -65q-14 -36 -33 -50h-99q64 22 90 79q12 26 12 58v246q0 49 16 78t27 38v-384zM1227 82v-392q5 -77 46 -121h-133q36 44 44 121v392h43zM352 1969h1696
q96 0 177 -47t128 -128t47 -177v-1696q0 -95 -47 -177t-128 -128q-81 -47 -177 -47h-455q12 12 4 25q-8 12 -27 18q-63 21 -63 92l1 8v305q0 103 -60 179q-16 20 -34 34q108 14 178 32t144 60t108 86q65 82 87 155q41 116 41 260q0 182 -124 321q57 144 -14 326l-30 -3
q-58 -7 -124 -33t-174 -96q-152 40 -300 40t-299 -40q-61 44 -149 86t-167 43q-3 -1 -5 -1q-7 -2 -9 -4q-68 -175 -12 -318q-124 -132 -124 -321q-1 -129 29 -221t47 -119q116 -215 480 -253q-69 -54 -86 -140q-79 -37 -125 -33q-46 5 -76 15q-66 21 -114 101q-32 63 -91 89
q-59 25 -85 19t-30 -12q-12 -16 39 -51q70 -35 115 -153q2 -4 5 -11t15 -28q12 -20 28 -36q62 -56 110 -66q119 -23 201 1v-213q0 -21 -11 -54q-11 -32 -43 -46q-55 -21 -33 -43h-464q-146 0 -249 103t-103 249v1696q0 146 103 249t249 103z" />
    <glyph glyph-name="uniE17D" unicode="&#xe17d;" 
d="M1348 -316v381q39 -29 42 -101l1 -23v-232q0 -121 112 -140h-107q-30 20 -39 60q-9 41 -9 55zM1063 -316q1 -28 -13 -65q-14 -36 -33 -50h-99q64 22 90 79q12 26 12 58v235q0 37 12 75t31 52v-384zM1227 82v-392q5 -77 46 -121h-133q36 44 44 121v392h43zM837 1969h726
q211 -1 307 -7t184 -34q106 -38 186 -118t110 -164t40 -173q10 -88 10 -341v-726q0 -210 -6 -306t-35 -185q-39 -106 -119 -186t-186 -119q-86 -27 -180 -34t-281 -7q12 12 4 25q-8 12 -27 18q-63 21 -63 92l1 8v305q0 103 -60 179q-16 20 -34 34q108 14 178 32t144 60
t108 86q65 82 87 155q41 116 41 260q0 182 -124 321q57 144 -14 326l-30 -3q-58 -7 -124 -33t-174 -96q-152 40 -300 40t-299 -40q-61 44 -149 86t-167 43q-9 -3 -11 -3t-3 -2q-68 -175 -12 -318q-124 -132 -124 -321q-1 -129 29 -221t47 -119q116 -215 480 -253
q-69 -53 -86 -140q-79 -37 -125 -33q-46 5 -76 15q-66 21 -114 101q-32 63 -91 89q-59 25 -85 19t-30 -12q-12 -16 39 -51q68 -34 118 -160q61 -154 266 -146q43 2 90 13v-213q0 -21 -11 -54q-11 -32 -43 -46q-25 -9 -33 -20t-5 -17t5 -6q-196 1 -290 7t-180 34
q-106 39 -186 119t-119 186q-29 89 -35 185t-6 306v726q0 253 10 341q10 89 40 173t110 164t186 118q88 28 184 34t307 7z" />
    <glyph glyph-name="uniE17E" unicode="&#xe17e;" 
d="M1508 17q0 136 -94 214q108 13 178 31t144 61t108 85q64 80 87 155q41 116 41 260q0 183 -124 321q57 144 -14 327l-30 -4q-58 -7 -124 -33t-174 -96q-152 40 -300 40t-299 -40q-61 44 -149 86t-167 43q-3 -1 -5 -1q-7 -2 -9 -4q-68 -175 -12 -318q-124 -131 -124 -321
q-1 -127 29 -219t47 -121q119 -218 480 -252q-69 -57 -86 -141q-79 -37 -125 -33q-46 5 -76 15q-67 21 -114 102q-31 61 -90 88q-59 26 -85 19q-27 -6 -31 -12q-11 -15 39 -51q70 -35 115 -153q1 -3 3 -7q3 -4 9 -18t15 -26t25 -28t35 -30q103 -71 272 -31v-213
q0 -21 -11 -51t-32 -43q-185 55 -344 166t-273 260q-115 148 -179 336t-64 358t32 306q32 135 90 253q59 119 141 223q159 202 406 325q247 124 553 124t581 -162t436 -435q161 -274 161 -603q0 -199 -64 -385t-176 -336q-112 -149 -270 -260q-156 -111 -340 -167
q-21 15 -32 37t-10 38v321zM1063 -316q0 -21 -10 -54t-24 -49q-33 5 -66 12q56 40 57 113v235q0 37 12 75t31 52v-384zM1391 -291q0 -79 50 -116q-20 -4 -60 -10q-30 35 -33 101v382q39 -31 42 -102l1 -23v-232zM1227 82v-392q5 -75 44 -119q-47 -2 -69 -2t-61 2
q35 44 43 119v392h43z" />
    <glyph glyph-name="uniE17F" unicode="&#xe17f;" 
d="M798 281q-20 0 -21 -15q1 -15 21 -15t20 15t-20 15zM709 269q1 -15 21 -15t20 15t-20 15t-21 -15zM842 277q0 -15 20 -15t21 15q-1 15 -21 15t-20 -15zM644 294q0 -14 20 -15q20 1 21 15q-1 14 -21 14t-20 -14zM596 334q0 -15 20 -15t20 15t-20 15t-20 -15zM580 392
q-20 0 -20 -14t20 -15q20 1 21 15q-1 14 -21 14zM571 424q-1 15 -21 15t-20 -15t20 -15t21 15zM493 464q0 -15 20 -15t20 15t-20 15t-20 -15zM441 494q1 -15 21 -15t20 15t-20 15t-21 -15zM1200 594q24 0 38 13t16 20q5 17 18 12t10 -20q-4 -16 -26 -36t-51 -20
q-30 1 -50 21q-43 44 -12 56q17 0 17 -13q16 -33 40 -33zM1210 668q-13 0 -27 8t-14 27q-1 19 11 30t28 11t26 -11q12 -11 12 -27t-12 -26q-12 -12 -24 -12zM1531 965q32 0 55 -33q23 -32 23 -64t-3 -46t-8 -28q-22 -56 -72 -55q-28 0 -50 33t-22 80t22 80t55 33zM894 965
q32 0 54 -33t23 -72q-1 -39 -11 -65q-23 -56 -60 -56q-38 0 -60 33t-23 80q1 47 23 80t54 33zM1201 517q69 1 109 1t95 4q56 4 91 10q34 7 78 19t71 30q74 50 105 117q30 67 30 174t-100 196q-56 52 -137 55q-80 2 -185 -5t-150 -7q-45 -1 -99 3q-55 4 -93 7q-100 8 -170 -2
q-70 -9 -117 -52q-98 -89 -98 -197q0 -185 127 -267q80 -52 169 -65q89 -14 147 -18t127 -3zM1063 308q-43 -29 -43 -122v-240q0 -48 -17 -70q-46 -59 -99 -67q0 -7 -41 -6t-45 5q-12 10 -2 24l49 29q34 25 38 91v213q-217 -45 -318 71q-23 26 -32 48l-9 21
q-43 112 -115 153q-69 46 -23 60q10 3 20 3l10 1q61 -6 102 -41q40 -35 59 -68q19 -35 45 -59t50 -36t53 -16q81 -14 166 28q18 88 86 140q-364 38 -480 253q-312 -11 -555 -90h-3q-6 0 -7 7t5 9q242 79 552 90q-11 22 -20 47q-332 15 -535 -33h-2q-14 0 -7 13q1 3 5 4
q202 47 533 32l-9 27q-33 105 -33 234q0 189 124 321q-56 143 12 318q1 2 17 4q62 7 191 -55q61 -29 122 -73q151 40 299 40t300 -40q108 70 174 96t124 33l30 3q71 -182 14 -326q124 -139 124 -321q0 -144 -41 -260q61 3 112 3q240 5 416 -36q8 -3 7 -10q-2 -7 -9 -7h-2
q-206 49 -530 33q-9 -25 -21 -47q308 -12 548 -90q9 -2 6 -9q-2 -7 -8 -7h-3q-241 79 -551 90q-94 -167 -310 -224q-64 -16 -172 -29q38 -31 66 -86t28 -127v-305q2 -1 0 -8q-3 -12 10 -45t51 -47q20 0 30 -24q3 -7 -3 -18t-55 -6q-74 8 -112 38q-38 29 -38 107v232
q1 36 -11 72q-12 37 -32 52v-381q0 -33 14 -68q14 -36 34 -48t22 -24t-12 -20t-32 -6t-30 6q-108 33 -117 166v392h-43v-392q-12 -118 -92 -160q-21 -11 -44 -12q-50 -8 -56 16q-2 17 19 31q43 25 52 110v393z" />
    <glyph glyph-name="uniE180" unicode="&#xe180;" 
d="M-41 393q-6 0 -7 7t5 9q242 79 552 90q-11 22 -20 47q-330 15 -535 -33h-2q-14 0 -7 13q1 3 5 4q203 47 533 32l-9 27q-33 105 -33 234q0 189 124 321q-56 143 12 318l14 5q78 -1 167 -43q88 -42 149 -86q151 40 299 40t300 -40q108 70 174 96t124 33l30 3
q71 -182 14 -326q124 -139 124 -321q0 -144 -41 -260q62 3 112 3q240 5 416 -36q8 -3 7 -10q-2 -7 -9 -7h-2q-206 49 -530 33q-9 -25 -21 -47q308 -12 548 -90q9 -2 6 -9q-2 -7 -8 -7h-3q-241 79 -551 90q-18 -32 -52 -75q-34 -44 -108 -86t-144 -60t-178 -32q38 -31 66 -86
t28 -127v-305q2 -1 0 -8q-3 -12 10 -45t51 -47q20 0 30 -24q3 -7 -3 -18t-55 -6q-74 8 -112 38q-38 29 -38 107v232q1 36 -11 72q-12 37 -32 52v-381q0 -33 14 -68q14 -36 34 -48t22 -24t-12 -20t-32 -6t-30 6q-108 33 -117 166v392h-43v-392q-12 -118 -92 -160
q-21 -11 -58 -15q-36 -5 -41 15t13 32q48 29 57 113v393q-24 -18 -34 -58q-9 -39 -9 -59v-245q0 -82 -75 -124q-32 -18 -74 -19q-41 -1 -49 3t-10 7q-15 19 27 36q33 13 43 30q21 37 21 67v219q-217 -45 -318 71q-23 26 -32 48l-9 21q-43 112 -115 153q-69 46 -23 60
q10 3 20 3l10 1q61 -6 102 -41q40 -35 61 -71q21 -37 51 -63q30 -25 60 -35q97 -30 201 18q17 86 86 140q-364 38 -480 253q-312 -11 -555 -90h-3zM1208 871q-45 -1 -99 3q-55 4 -93 7q-100 8 -171 -2t-115 -52q-98 -89 -98 -197q0 -186 126 -267q134 -86 404 -86
q240 1 290 9t92 16t68 22t56 33q46 29 79 97q33 69 33 177t-100 197q-56 52 -136 55q-80 2 -186 -5q-105 -7 -150 -7zM894 725q32 0 54 -33t23 -80q-1 -47 -23 -80t-54 -33t-54 33t-23 80q1 47 23 80t54 33zM1531 725q32 0 55 -33t23 -80t-23 -80t-55 -33q-33 0 -55 33
t-22 80t22 80t55 33zM1208 504q16 0 26 -11q12 -11 12 -27t-12 -26q-12 -12 -24 -12q-13 0 -27 8t-14 27q-1 19 11 30t28 11zM1208 354q16 0 30 13t16 20q5 18 18 12q13 -5 10 -21q-4 -15 -26 -35t-46 -20q-25 0 -50 17t-28 36q-3 20 11 23q14 4 17 -10q3 -15 18 -25
q14 -10 30 -10zM482 254q0 15 -20 15t-21 -15q1 -15 21 -15t20 15zM533 224q0 15 -20 15t-20 -15t20 -15t20 15zM571 184q0 15 -20 15t-20 -15t20 -15t20 15zM560 138q0 -14 20 -15q20 1 21 15q-1 14 -21 14t-20 -14zM636 94q0 15 -20 15t-20 -15t20 -15t20 15zM685 54
q-1 14 -21 14t-20 -14t20 -15q20 1 21 15zM883 37q-1 15 -21 15t-20 -15t20 -15t21 15zM750 29q0 15 -20 15t-20 -15t20 -15t20 15zM798 11q20 0 20 15t-20 15t-21 -15q1 -15 21 -15z" />
    <glyph glyph-name="uniE181" unicode="&#xe181;" 
d="M1230 1669q-152 -1 -269 -33t-215 -90q-203 -120 -325 -325q-121 -206 -121 -452q0 -298 173 -532t443 -322q28 -5 44 9t16 36q0 118 -2 167q-140 -27 -204 9t-91 81q-49 111 -91 138q-97 55 -9 64q39 -3 73 -25t50 -46l14 -22q34 -58 90 -82q83 -36 172 6q13 83 58 119
q-133 13 -211 56q-77 43 -113 91q-84 110 -85 298q0 142 93 240q-42 108 8 239q37 19 120 -21q83 -39 128 -72q114 30 225 30t225 -30q80 53 140 76t83 21l24 -4q51 -131 9 -239q93 -103 93 -240q0 -189 -86 -299q-74 -90 -204 -124q-55 -14 -121 -22q62 -56 62 -166v-157
q-2 -58 -2 -84t16 -39t44 -8q269 88 443 322q173 234 173 532q0 183 -72 349t-192 288q-120 120 -286 192q-168 72 -320 71zM2400 -431h-2400v2400h2400v-2400z" />
    <glyph glyph-name="uniE182" unicode="&#xe182;" 
d="M1230 1669q-152 -1 -269 -33t-215 -90q-203 -120 -325 -325q-121 -206 -121 -452q0 -298 173 -532t443 -322q28 -5 44 9t16 36q0 118 -2 167q-140 -27 -204 9t-91 81q-49 111 -91 138q-97 55 -9 64q39 -3 73 -25t50 -46l14 -22q34 -58 90 -82q83 -36 172 6q13 83 58 119
q-133 13 -211 56q-77 43 -113 91q-84 110 -85 298q0 142 93 240q-42 108 8 239q37 19 120 -21q83 -39 128 -72q114 30 225 30t225 -30q80 53 140 76t83 21l24 -4q51 -131 9 -239q93 -103 93 -240q0 -189 -86 -299q-74 -90 -204 -124q-55 -14 -121 -22q62 -56 62 -166v-157
q-2 -58 -2 -84t16 -39t44 -8q269 88 443 322q173 234 173 532q0 183 -72 349t-192 288q-120 120 -286 192q-168 72 -320 71zM256 1969h1888q106 0 181 -75t75 -181v-1888q0 -106 -75 -181t-181 -75h-1888q-106 0 -181 75t-75 181v1888q0 106 75 181t181 75z" />
    <glyph glyph-name="uniE183" unicode="&#xe183;" 
d="M1230 1669q-152 -1 -269 -33t-215 -90q-203 -120 -325 -325q-121 -206 -121 -452q0 -298 173 -532t443 -322q28 -5 44 9t16 36q0 118 -2 167q-140 -27 -204 9t-91 81q-49 111 -91 138q-97 55 -9 64q39 -3 73 -25t50 -46l14 -22q34 -58 90 -82q83 -36 172 6q13 83 58 119
q-133 13 -211 56q-77 43 -113 91q-84 110 -85 298q0 142 93 240q-42 108 8 239q37 19 120 -21q83 -39 128 -72q114 30 225 30t225 -30q80 53 140 76t83 21l24 -4q51 -131 9 -239q93 -103 93 -240q0 -189 -86 -299q-74 -90 -204 -124q-55 -14 -121 -22q62 -56 62 -166v-157
q-2 -58 -2 -84t16 -39t44 -8q269 88 443 322q173 234 173 532q0 183 -72 349t-192 288q-120 120 -286 192q-168 72 -320 71zM352 1969h1696q146 0 249 -103t103 -249v-1696q0 -146 -103 -249t-249 -103h-1696q-146 0 -249 103t-103 249v1696q0 146 103 249t249 103z" />
    <glyph glyph-name="uniE184" unicode="&#xe184;" 
d="M1230 1669q-152 -1 -269 -33t-215 -90q-203 -120 -325 -325q-121 -206 -121 -452q0 -298 173 -532t443 -322q28 -5 44 9t16 36q0 118 -2 167q-140 -27 -204 9t-91 81q-49 111 -91 138q-97 55 -9 64q39 -3 73 -25t50 -46l14 -22q34 -58 90 -82q83 -36 172 6q13 83 58 119
q-133 13 -211 56q-77 43 -113 91q-84 110 -85 298q0 142 93 240q-42 108 8 239q37 19 120 -21q83 -39 128 -72q114 30 225 30t225 -30q80 53 140 76t83 21l24 -4q51 -131 9 -239q93 -103 93 -240q0 -189 -86 -299q-74 -90 -204 -124q-55 -14 -121 -22q62 -56 62 -166v-157
q-2 -58 -2 -84t16 -39t44 -8q269 88 443 322q173 234 173 532q0 183 -72 349t-192 288q-120 120 -286 192q-168 72 -320 71zM837 1969h726q211 -1 307 -7t184 -34q106 -38 186 -118t110 -164t40 -173q10 -88 10 -341v-726q0 -210 -6 -306t-35 -185q-39 -106 -119 -186
t-186 -119q-88 -28 -184 -34t-307 -7h-726q-211 1 -307 7t-184 34q-106 39 -186 119t-119 186q-29 89 -35 185t-6 306v726q0 253 10 341q10 89 40 173t110 164t186 118q88 28 184 34t307 7z" />
    <glyph glyph-name="uniE185" unicode="&#xe185;" 
d="M1230 1669q-152 -1 -269 -33t-215 -90q-203 -120 -325 -325q-121 -206 -121 -452q0 -298 173 -532t443 -322q28 -5 44 9t16 36q0 118 -2 167q-140 -27 -204 9t-91 81q-49 111 -91 138q-97 55 -9 64q39 -3 73 -25t50 -46l14 -22q34 -58 90 -82q83 -36 172 6q13 83 58 119
q-133 13 -211 56q-77 43 -113 91q-84 110 -85 298q0 142 93 240q-42 108 8 239q37 19 120 -21q83 -39 128 -72q114 30 225 30t225 -30q80 53 140 76t83 21l24 -4q51 -131 9 -239q93 -103 93 -240q0 -189 -86 -299q-74 -90 -204 -124q-55 -14 -121 -22q62 -56 62 -166v-157
q-2 -58 -2 -84t16 -39t44 -8q269 88 443 322q173 234 173 532q0 183 -72 349t-192 288q-120 120 -286 192q-168 72 -320 71zM1200 1969q196 -1 379 -61t331 -171t258 -259q112 -148 172 -330q60 -183 60 -379t-60 -379q-60 -182 -172 -330q-110 -148 -258 -259t-331 -171
t-379 -61q-196 1 -379 61t-331 171t-258 259q-112 148 -172 330q-60 183 -60 379t60 379q60 182 172 330q110 148 258 259t331 171t379 61z" />
    <glyph glyph-name="uniE186" unicode="&#xe186;" 
d="M1200 1669q313 1 563 -197q152 -120 245 -305q92 -185 92 -398q0 -298 -173 -532t-443 -322q-60 -8 -60 44q0 29 2 87v157q0 110 -62 166q231 28 321 141t90 304q0 137 -93 240q42 108 -9 239l-24 4q-23 2 -83 -21t-140 -76q-114 30 -225 30t-225 -30q-132 97 -237 97
q-2 -1 -6 -2t-5 -2q-50 -131 -8 -239q-93 -98 -93 -240q0 -97 24 -174q45 -143 148 -200q104 -57 237 -71q-45 -36 -58 -119q-73 -34 -120 -24q-98 22 -142 100l-14 22q-16 24 -50 46t-73 25q-88 -9 9 -64q42 -27 91 -138q27 -45 91 -81t204 -9q2 -49 2 -115t-6 -78
q-14 -25 -54 -19q-269 88 -443 322q-173 234 -173 532q0 183 72 349t192 288q120 120 286 192t350 71z" />
    <glyph glyph-name="uniE187" unicode="&#xe187;" 
d="M1775 814q0 -189 -86 -299q-74 -90 -204 -124q-55 -14 -121 -22q62 -56 62 -166v-157q-2 -58 -2 -84t16 -39t44 -8q-137 -46 -284 -46t-284 46q28 -5 44 9t16 36q0 118 -2 167q-140 -27 -204 9t-91 81q-49 111 -91 138q-97 55 -9 64q39 -3 73 -25t50 -46l14 -22
q34 -58 90 -82q83 -36 172 6q13 83 58 119q-133 13 -211 56q-77 43 -113 91q-84 110 -85 298q0 142 93 240q-42 108 8 239q3 3 32 5q30 2 101 -32q70 -33 115 -66q114 30 225 30t225 -30q80 53 140 76t83 21l24 -4q51 -131 9 -239q93 -103 93 -240z" />
    <glyph glyph-name="uniE188" unicode="&#xe188;" 
d="M1184 1969q180 0 334 -43q156 -42 288 -120q271 -160 432 -435q162 -274 162 -602q0 -196 -62 -379t-170 -330t-260 -259t-329 -171q-39 -6 -59 12t-21 52q0 34 2 111v209q0 148 -82 222q88 10 163 30q385 100 385 563q0 182 -124 320q56 144 -12 319l-33 5
q-30 3 -110 -28t-187 -101q-152 40 -300 40t-300 -40q-60 44 -148 86t-168 43q-3 -2 -8 -3t-6 -2q-67 -175 -11 -319q-125 -131 -125 -320q0 -129 32 -232t81 -166q126 -162 433 -195q-59 -49 -77 -159q-99 -43 -177 -27q-45 10 -93 42q-48 33 -79 86l-19 30q-22 32 -68 60
t-96 34l-25 -2q-69 -10 16 -71l21 -11q24 -16 58 -62t54 -102l10 -21q34 -60 107 -101q100 -56 286 -19q2 -65 2 -223q-1 -30 -21 -48t-59 -12q-177 59 -329 171t-260 259t-170 330t-62 379t60 379q60 182 172 330q110 148 258 259t331 171t363 61z" />
    <glyph glyph-name="uniE189" unicode="&#xe189;" 
d="M1967 829q-1 -365 -237 -501q-74 -42 -149 -64q-74 -17 -162 -28q82 -74 82 -222v-209q-2 -77 -2 -111q1 -34 21 -52t59 -12q-182 -61 -379 -61t-379 61q39 -6 59 12t21 48q0 158 -2 223q-186 -37 -286 19q-73 41 -107 101l-10 21q-20 56 -54 102t-58 62l-21 11
q-85 61 -16 71l25 2q50 -6 96 -34t68 -60l19 -30q31 -53 79 -86q89 -61 160 -47q70 14 110 32q18 110 77 159q-173 16 -307 89q-77 43 -126 106q-48 63 -80 166t-32 232q0 189 124 320q-56 144 11 319l14 5q79 -1 168 -43q88 -42 148 -86q152 40 300 40t300 -40
q107 70 187 101t110 28l33 -5q68 -175 12 -319q124 -138 124 -320z" />
    <glyph glyph-name="uniE191" unicode="&#xe191;" 
d="M1885 199h-1370v882l685 -481l685 481v-882zM1200 871l-667 468h1334zM1980 1419h-1560q-50 0 -85 -35t-35 -85v-1060q0 -50 35 -85t85 -35h1560q50 0 85 35t35 85v1060q0 50 -35 85t-85 35zM2400 -431h-2400v2400h2400v-2400z" />
    <glyph glyph-name="uniE192" unicode="&#xe192;" 
d="M1885 199h-1370v882l685 -481l685 481v-882zM1200 871l-667 468h1334zM1980 1419h-1560q-50 0 -85 -35t-35 -85v-1060q0 -50 35 -85t85 -35h1560q50 0 85 35t35 85v1060q0 50 -35 85t-85 35zM256 1969h1888q106 0 181 -75t75 -181v-1888q0 -106 -75 -181t-181 -75h-1888
q-106 0 -181 75t-75 181v1888q0 106 75 181t181 75z" />
    <glyph glyph-name="uniE193" unicode="&#xe193;" 
d="M1885 199h-1370v882l685 -481l685 481v-882zM1200 871l-667 468h1334zM1980 1419h-1560q-50 0 -85 -35t-35 -85v-1060q0 -50 35 -85t85 -35h1560q50 0 85 35t35 85v1060q0 50 -35 85t-85 35zM352 1969h1696q146 0 249 -103t103 -249v-1696q0 -146 -103 -249t-249 -103
h-1696q-146 0 -249 103t-103 249v1696q0 146 103 249t249 103z" />
    <glyph glyph-name="uniE194" unicode="&#xe194;" 
d="M1885 199h-1370v882l685 -481l685 481v-882zM1200 871l-667 468h1334zM1980 1419h-1560q-50 0 -85 -35t-35 -85v-1060q0 -50 35 -85t85 -35h1560q50 0 85 35t35 85v1060q0 50 -35 85t-85 35zM837 1969h726q211 -1 307 -7t184 -34q106 -38 186 -118t110 -164t40 -173
q10 -88 10 -341v-726q0 -210 -6 -306t-35 -185q-39 -106 -119 -186t-186 -119q-88 -28 -184 -34t-307 -7h-726q-211 1 -307 7t-184 34q-106 39 -186 119t-119 186q-29 89 -35 185t-6 306v726q0 253 10 341q10 89 40 173t110 164t186 118q88 28 184 34t307 7z" />
    <glyph glyph-name="uniE195" unicode="&#xe195;" 
d="M1885 199h-1370v882l685 -481l685 481v-882zM1200 871l-667 468h1334zM1980 1419h-1560q-50 0 -85 -35t-35 -85v-1060q0 -50 35 -85t85 -35h1560q50 0 85 35t35 85v1060q0 50 -35 85t-85 35zM1200 1969q196 -1 379 -61t331 -171t258 -259q112 -148 172 -330
q60 -183 60 -379t-60 -379q-60 -182 -172 -330q-110 -148 -258 -259t-331 -171t-379 -61q-196 1 -379 61t-331 171t-258 259q-112 148 -172 330q-60 183 -60 379t60 379q60 182 172 330q110 148 258 259t331 171t379 61z" />
    <glyph glyph-name="uniE196" unicode="&#xe196;" 
d="M420 1419h1560q50 0 85 -35t35 -85v-1060q0 -50 -35 -85t-85 -35h-1560q-50 0 -85 35t-35 85v1060q0 50 35 85t85 35zM533 1339l667 -468l667 468h-1334zM515 199h1370v882l-685 -481l-685 481v-882z" />
    <glyph glyph-name="uniE197" unicode="&#xe197;" 
d="M420 1419h1560q50 0 85 -35t35 -85v-1060q0 -50 -35 -85t-85 -35h-1560q-50 0 -85 35t-35 85v1060q0 50 35 85t85 35z" />
    <glyph glyph-name="uniE198" unicode="&#xe198;" 
d="M2100 1299v-1060q0 -50 -36 -85t-84 -35h-95v962l-685 -481l-686 481v-962h-94q-50 0 -85 35t-35 85v1060q0 50 35 85t85 35l780 -548l780 548q69 1 104 -59q16 -28 16 -61z" />
    <glyph glyph-name="uniE199" unicode="&#xe199;" 
d="M2100 239q0 -50 -36 -85t-84 -35h-95l-685 481l900 632v-993zM1200 600l-686 -481v44l654 459z" />
    <glyph glyph-name="uniE19A" unicode="&#xe19a;" 
d="M514 119h-94q-50 0 -85 35t-35 85v993l214 -151v-962zM2100 239q0 -50 -36 -85t-84 -35h-95l-685 481l900 632v-993z" />
    <glyph glyph-name="uniE19B" unicode="&#xe19b;" 
d="M2100 239q0 -50 -36 -85t-84 -35h-95v962l215 151v-993z" />
    <glyph glyph-name="uniE19C" unicode="&#xe19c;" 
d="M514 119h-94q-50 0 -85 35t-35 85v993l214 -151v-962zM2100 239q0 -50 -36 -85t-84 -35h-95v962l215 151v-993z" />
    <glyph glyph-name="uniE19D" unicode="&#xe19d;" 
d="M1200 871l-780 548h1560z" />
    <glyph glyph-name="uniE19E" unicode="&#xe19e;" 
d="M1200 600l-686 -481v44l654 459zM1200 600l685 481v-962z" />
    <glyph glyph-name="uniE19F" unicode="&#xe19f;" 
d="M1885 1081v-962l-685 481z" />
    <glyph glyph-name="uniE220" unicode="&#xe220;" 
d="M1200 1089q-132 1 -226 -93t-94 -227t94 -227t226 -93q132 -1 226 93t94 227t-94 227t-226 93zM1757 1393h-176q-27 -1 -45 -19t-19 -45v-176q1 -27 19 -45t45 -19h176q27 1 45 19t19 45v176q-1 27 -19 45t-45 19zM592 1569h1216q80 0 136 -56t56 -136v-1216
q0 -80 -56 -136t-136 -56h-1216q-80 0 -136 56t-56 136v1216q0 80 56 136t136 56z" />
    <glyph glyph-name="uniE221" unicode="&#xe221;" 
d="M1824 913v-703q0 -28 -18 -46t-46 -18h-1120q-28 0 -46 18t-18 46v703h149q-21 -69 -21 -157t40 -180t105 -158q66 -66 158 -106t193 -39q101 -1 193 39t158 106q65 66 105 158t40 180t-21 157h149zM1200 1089q132 1 226 -93t94 -227t-94 -227t-226 -93q-132 -1 -226 93
t-94 227t94 227t226 93zM1581 1393h176q27 -1 45 -19t19 -45v-176q-1 -27 -19 -45t-45 -19h-176q-27 1 -45 19t-19 45v176q1 27 19 45t45 19zM1808 1569h-1216q-80 0 -136 -56t-56 -136v-1216q0 -80 56 -136t136 -56h1216q80 0 136 56t56 136v1216q0 80 -56 136t-136 56z
M2400 -431h-2400v2400h2400v-2400z" />
    <glyph glyph-name="uniE222" unicode="&#xe222;" 
d="M1824 913v-703q0 -28 -18 -46t-46 -18h-1120q-28 0 -46 18t-18 46v703h149q-21 -69 -21 -157t40 -180t105 -158q66 -66 158 -106t193 -39q101 -1 193 39t158 106q65 66 105 158t40 180t-21 157h149zM1200 1089q132 1 226 -93t94 -227t-94 -227t-226 -93q-132 -1 -226 93
t-94 227t94 227t226 93zM1581 1393h176q27 -1 45 -19t19 -45v-176q-1 -27 -19 -45t-45 -19h-176q-27 1 -45 19t-19 45v176q1 27 19 45t45 19zM1808 1569h-1216q-80 0 -136 -56t-56 -136v-1216q0 -80 56 -136t136 -56h1216q80 0 136 56t56 136v1216q0 80 -56 136t-136 56z
M256 1969h1888q106 0 181 -75t75 -181v-1888q0 -106 -75 -181t-181 -75h-1888q-106 0 -181 75t-75 181v1888q0 106 75 181t181 75z" />
    <glyph glyph-name="uniE223" unicode="&#xe223;" 
d="M1824 913v-703q0 -28 -18 -46t-46 -18h-1120q-28 0 -46 18t-18 46v703h149q-21 -69 -21 -157t40 -180t105 -158q66 -66 158 -106t193 -39q101 -1 193 39t158 106q65 66 105 158t40 180t-21 157h149zM1200 1089q132 1 226 -93t94 -227t-94 -227t-226 -93q-132 -1 -226 93
t-94 227t94 227t226 93zM1581 1393h176q27 -1 45 -19t19 -45v-176q-1 -27 -19 -45t-45 -19h-176q-27 1 -45 19t-19 45v176q1 27 19 45t45 19zM1808 1569h-1216q-80 0 -136 -56t-56 -136v-1216q0 -80 56 -136t136 -56h1216q80 0 136 56t56 136v1216q0 80 -56 136t-136 56z
M352 1969h1696q146 0 249 -103t103 -249v-1696q0 -146 -103 -249t-249 -103h-1696q-146 0 -249 103t-103 249v1696q0 146 103 249t249 103z" />
    <glyph glyph-name="uniE224" unicode="&#xe224;" 
d="M1824 913v-703q0 -28 -18 -46t-46 -18h-1120q-28 0 -46 18t-18 46v703h149q-21 -69 -21 -157t40 -180t105 -158q66 -66 158 -106t193 -39q101 -1 193 39t158 106q65 66 105 158t40 180t-21 157h149zM1200 1089q132 1 226 -93t94 -227t-94 -227t-226 -93q-132 -1 -226 93
t-94 227t94 227t226 93zM1581 1393h176q27 -1 45 -19t19 -45v-176q-1 -27 -19 -45t-45 -19h-176q-27 1 -45 19t-19 45v176q1 27 19 45t45 19zM1808 1569h-1216q-80 0 -136 -56t-56 -136v-1216q0 -80 56 -136t136 -56h1216q80 0 136 56t56 136v1216q0 80 -56 136t-136 56z
M837 1969h726q211 -1 307 -7t184 -34q106 -38 186 -118t110 -164t40 -173q10 -88 10 -341v-726q0 -210 -6 -306t-35 -185q-39 -106 -119 -186t-186 -119q-88 -28 -184 -34t-307 -7h-726q-211 1 -307 7t-184 34q-106 39 -186 119t-119 186q-29 89 -35 185t-6 306v726
q0 253 10 341q10 89 40 173t110 164t186 118q88 28 184 34t307 7z" />
    <glyph glyph-name="uniE225" unicode="&#xe225;" 
d="M1824 913v-703q0 -28 -18 -46t-46 -18h-1120q-28 0 -46 18t-18 46v703h149q-21 -69 -21 -157t40 -180t105 -158q66 -66 158 -106t193 -39q101 -1 193 39t158 106q65 66 105 158t40 180t-21 157h149zM1200 1089q132 1 226 -93t94 -227t-94 -227t-226 -93q-132 -1 -226 93
t-94 227t94 227t226 93zM1581 1393h176q27 -1 45 -19t19 -45v-176q-1 -27 -19 -45t-45 -19h-176q-27 1 -45 19t-19 45v176q1 27 19 45t45 19zM1808 1569h-1216q-80 0 -136 -56t-56 -136v-1216q0 -80 56 -136t136 -56h1216q80 0 136 56t56 136v1216q0 80 -56 136t-136 56z
M1200 1969q196 -1 379 -61t331 -171t258 -259q112 -148 172 -330q60 -183 60 -379t-60 -379q-60 -182 -172 -330q-110 -148 -258 -259t-331 -171t-379 -61q-196 1 -379 61t-331 171t-258 259q-112 148 -172 330q-60 183 -60 379t60 379q60 182 172 330q110 148 258 259
t331 171t379 61z" />
    <glyph glyph-name="uniE226" unicode="&#xe226;" 
d="M1824 913h-149q21 -69 21 -157t-40 -180t-105 -158q-66 -66 -158 -106t-193 -39q-101 -1 -193 39t-158 106q-65 66 -105 158t-40 180t21 157h-149v-703q0 -28 18 -46t46 -18h1120q28 0 46 18t18 46v703zM1200 1089q-132 1 -226 -93t-94 -227t94 -227t226 -93
q132 -1 226 93t94 227t-94 227t-226 93zM1757 1393h-176q-27 -1 -45 -19t-19 -45v-176q1 -27 19 -45t45 -19h176q27 1 45 19t19 45v176q-1 27 -19 45t-45 19zM592 1569h1216q80 0 136 -56t56 -136v-1216q0 -80 -56 -136t-136 -56h-1216q-80 0 -136 56t-56 136v1216
q0 80 56 136t136 56z" />
    <glyph glyph-name="uniE227" unicode="&#xe227;" 
d="M1757 1393h-176q-27 -1 -45 -19t-19 -45v-176q1 -27 19 -45t45 -19h176q27 1 45 19t19 45v176q-1 27 -19 45t-45 19zM1486 913q-92 176 -302 176q-76 0 -153 -48t-117 -128h-514v464q0 80 56 136t136 56h1216q80 0 136 -56t56 -136v-464h-514z" />
    <glyph glyph-name="uniE228" unicode="&#xe228;" 
d="M2000 913v-752q0 -80 -56 -136t-136 -56h-1216q-80 0 -136 56t-56 136v752h514q-34 -68 -34 -144q0 -133 94 -227t226 -93q132 -1 226 93t94 227q0 76 -34 144h514z" />
    <glyph glyph-name="uniE229" unicode="&#xe229;" 
d="M1200 1102q138 0 236 -98t97 -235q1 -137 -97 -235t-236 -98t-236 98t-97 235q-1 137 97 235t236 98z" />
    <glyph glyph-name="uniE23C" unicode="&#xe23c;" 
d="M520 1080v450q28 18 60 28v-478h-60z" />
    <glyph glyph-name="uniE23D" unicode="&#xe23d;" 
d="M580 1080v478q29 9 60 10v-488h-60z" />
    <glyph glyph-name="uniE23E" unicode="&#xe23e;" 
d="M700 1569v-489h-60v488l16 1h44z" />
    <glyph glyph-name="uniE23F" unicode="&#xe23f;" 
d="M760 1569v-489h-60v489h60z" />
    <glyph glyph-name="uniE25A" unicode="&#xe25a;" 
d="M443 1108v-1064h330v1064h-330zM1302 1108h-314v-1064h327v595q-1 117 83 177q46 32 124 33q78 -1 124 -61q45 -60 45 -168v-576h328v623q-1 245 -99 357t-301 111q-203 0 -317 -177v150zM608 1632q-78 0 -133 -54t-55 -132t55 -132t133 -55q78 1 134 55t55 132
q1 78 -55 132t-134 54zM2400 -431h-2400v2400h2400v-2400z" />
    <glyph glyph-name="uniE25B" unicode="&#xe25b;" 
d="M443 1108v-1064h330v1064h-330zM1302 1108h-314v-1064h327v595q-1 117 83 177q46 32 124 33q78 -1 124 -61q45 -60 45 -168v-576h328v623q-1 245 -99 357t-301 111q-203 0 -317 -177v150zM608 1632q-78 0 -133 -54t-55 -132t55 -132t133 -55q78 1 134 55t55 132
q1 78 -55 132t-134 54zM256 1969h1888q106 0 181 -75t75 -181v-1888q0 -106 -75 -181t-181 -75h-1888q-106 0 -181 75t-75 181v1888q0 106 75 181t181 75z" />
    <glyph glyph-name="uniE25C" unicode="&#xe25c;" 
d="M443 1108v-1064h330v1064h-330zM1302 1108h-314v-1064h327v595q-1 117 83 177q46 32 124 33q78 -1 124 -61q45 -60 45 -168v-576h328v623q-1 245 -99 357t-301 111q-203 0 -317 -177v150zM608 1632q-78 0 -133 -54t-55 -132t55 -132t133 -55q78 1 134 55t55 132
q1 78 -55 132t-134 54zM352 1969h1696q146 0 249 -103t103 -249v-1696q0 -146 -103 -249t-249 -103h-1696q-146 0 -249 103t-103 249v1696q0 146 103 249t249 103z" />
    <glyph glyph-name="uniE25D" unicode="&#xe25d;" 
d="M443 1108v-1064h330v1064h-330zM1302 1108h-314v-1064h327v595q-1 117 83 177q46 32 124 33q78 -1 124 -61q45 -60 45 -168v-576h328v623q-1 245 -99 357t-301 111q-203 0 -317 -177v150zM608 1632q-78 0 -133 -54t-55 -132t55 -132t133 -55q78 1 134 55t55 132
q1 78 -55 132t-134 54zM837 1969h726q211 -1 307 -7t184 -34q106 -38 186 -118t110 -164t40 -173q10 -88 10 -341v-726q0 -210 -6 -306t-35 -185q-39 -106 -119 -186t-186 -119q-88 -28 -184 -34t-307 -7h-726q-211 1 -307 7t-184 34q-106 39 -186 119t-119 186
q-29 89 -35 185t-6 306v726q0 253 10 341q10 89 40 173t110 164t186 118q88 28 184 34t307 7z" />
    <glyph glyph-name="uniE25E" unicode="&#xe25e;" 
d="M443 1108v-1064h330v1064h-330zM1302 1108h-314v-1064h327v595q-1 117 83 177q46 32 124 33q78 -1 124 -61q45 -60 45 -168v-576h328v623q-1 245 -99 357t-301 111q-203 0 -317 -177v150zM608 1632q-78 0 -133 -54t-55 -132t55 -132t133 -55q78 1 134 55t55 132
q1 78 -55 132t-134 54zM1200 1969q196 -1 379 -61t331 -171t258 -259q112 -148 172 -330q60 -183 60 -379t-60 -379q-60 -182 -172 -330q-110 -148 -258 -259t-331 -171t-379 -61q-196 1 -379 61t-331 171t-258 259q-112 148 -172 330q-60 183 -60 379t60 379
q60 182 172 330q110 148 258 259t331 171t379 61z" />
    <glyph glyph-name="uniE25F" unicode="&#xe25f;" 
d="M773 44h-330v1064h330v-1064zM2019 667v-623h-328v576q0 108 -45 168q-46 60 -124 61q-144 0 -191 -120q-16 -41 -16 -90v-595h-327v1064h314v-150q114 177 317 177q203 1 301 -111t99 -357zM622 1632q64 0 120 -54t55 -132q1 -78 -55 -132t-120 -55q-64 0 -108 25
t-69 68q-25 44 -25 94t25 93t69 68t108 25z" />
    <glyph glyph-name="uniE291" unicode="&#xe291;" 
d="M2400 -431h-1613q158 205 205 373l81 317q43 -81 163 -123q58 -20 119 -21q137 1 253 61t198 165q172 223 172 566q0 212 -134 385q-134 174 -352 240q-116 36 -247 36t-249 -30t-207 -84q-184 -110 -276 -275q-91 -165 -91 -354t104 -319q54 -68 132 -100q20 -9 36 -1
t22 30l24 92q5 22 2 34t-19 31q-76 90 -76 226q0 181 102 324q163 229 472 229q223 0 349 -125t126 -304q0 -180 -46 -320t-130 -223q-84 -84 -183 -84t-155 66t-34 156q12 52 56 195t45 217q0 73 -40 122q-41 49 -125 49t-148 -86t-65 -197q0 -112 28 -177l9 -21l-149 -630
q-39 -167 -3 -439v-1h-756v2400h2400v-2400z" />
    <glyph glyph-name="uniE292" unicode="&#xe292;" 
d="M256 1969h1888q106 0 181 -75t75 -181v-1888q0 -106 -75 -181t-181 -75h-1357q158 205 205 373l81 317q43 -81 163 -123q58 -20 119 -21q137 1 253 61t198 165q172 223 172 566q0 212 -134 385q-134 174 -352 240q-116 36 -247 36t-249 -30t-207 -84q-184 -110 -276 -275
q-91 -165 -91 -354t104 -319q54 -68 132 -100q20 -9 36 -1t22 30l24 92q5 22 2 34t-19 31q-76 90 -76 226q0 181 102 324q163 229 472 229q223 0 349 -125t126 -304q0 -180 -46 -320t-130 -223q-84 -84 -183 -84t-155 66t-34 156q12 52 56 195t45 217q0 73 -40 122
q-41 49 -125 49t-148 -86t-65 -197q0 -112 28 -177l9 -21l-149 -630q-39 -167 -3 -439v-1h-500q-106 0 -181 75t-75 181v1888q0 106 75 181t181 75z" />
    <glyph glyph-name="uniE293" unicode="&#xe293;" 
d="M352 1969h1696q96 0 177 -47t128 -128t47 -177v-1696q0 -95 -47 -177t-128 -128q-81 -47 -177 -47h-1261q158 205 205 373l81 317q43 -81 163 -123q58 -20 119 -21q137 1 253 61t198 165q172 223 172 566q0 212 -134 385q-134 174 -352 240q-116 36 -247 36t-249 -30
t-207 -84q-184 -110 -276 -275q-91 -165 -91 -354t104 -319q54 -68 132 -100q20 -9 36 -1t22 30l24 92q5 22 2 34t-19 31q-76 90 -76 226q0 181 102 324q163 229 472 229q223 0 349 -125t126 -304q0 -180 -46 -320t-130 -223q-84 -84 -183 -84t-155 66t-34 156q12 52 56 195
t45 217q0 73 -40 122q-41 49 -125 49t-148 -86t-65 -197q0 -112 28 -177l9 -21l-149 -630q-39 -167 -3 -439v-1h-404q-146 0 -249 103t-103 249v1696q0 146 103 249t249 103z" />
    <glyph glyph-name="uniE294" unicode="&#xe294;" 
d="M2400 1132v-726q0 -210 -6 -306t-35 -185q-39 -106 -119 -186t-186 -119q-88 -28 -184 -34t-307 -7h-776q158 205 205 373l81 317q43 -81 163 -123q58 -20 119 -21q137 1 253 61t198 165q172 223 172 566q0 212 -134 385q-134 174 -352 240q-116 36 -247 36t-249 -30
t-207 -84q-184 -110 -276 -275q-91 -165 -91 -354t104 -319q54 -68 132 -100q20 -9 36 -1t22 30l24 92q5 22 2 34t-19 31q-76 90 -76 226q0 181 102 324q163 229 472 229q223 0 349 -125t126 -304q0 -180 -46 -320t-130 -223q-84 -84 -183 -84t-155 66t-34 156q12 52 56 195
t45 217q0 73 -40 122q-41 49 -125 49t-148 -86t-65 -197q0 -112 28 -177l9 -21l-149 -630q-39 -167 -3 -439v-1q-158 1 -244 9t-166 32q-106 39 -186 119t-119 186q-29 89 -35 185t-6 306v726q0 253 10 341q10 89 40 173t110 164t186 118q88 28 184 34t307 7h726
q211 -1 307 -7t184 -34q106 -38 186 -118t119 -187q29 -89 35 -185t6 -306z" />
    <glyph glyph-name="uniE295" unicode="&#xe295;" 
d="M1184 1969q180 0 334 -43q156 -42 288 -120t242 -189t188 -243t121 -286q43 -156 43 -319t-43 -319t-121 -286q-160 -271 -434 -433t-602 -162q-192 0 -370 58q123 174 162 315l81 317q43 -81 163 -123q58 -20 119 -21q137 1 253 61t198 165q172 223 172 566
q0 212 -134 385q-134 174 -352 240q-116 36 -247 36t-249 -30t-207 -84q-184 -110 -276 -275q-91 -165 -91 -354t104 -319q54 -68 132 -100q20 -9 36 -1t22 30l24 92q5 22 2 34t-19 31q-76 90 -76 226q0 181 102 324q163 229 472 229q223 0 349 -125t126 -304
q0 -180 -46 -320t-130 -223q-84 -84 -183 -84t-155 66t-38 145t62 213q43 135 43 209t-40 123q-41 49 -125 49t-148 -86t-65 -197q0 -112 28 -177l9 -21l-149 -630q-34 -144 -14 -351q-331 136 -538 436t-207 675q0 196 60 379q60 182 172 330q110 148 258 259t331 171
t363 61z" />
    <glyph glyph-name="uniE296" unicode="&#xe296;" 
d="M1245 1568q387 0 603 -280q130 -169 130 -381q0 -343 -172 -566q-82 -105 -198 -165t-230 -61q-114 1 -194 43t-111 101l-81 -317q-45 -163 -209 -378q-6 -8 -16 -6t-11 12q-36 272 3 439l149 630l-9 21q-28 65 -28 177q1 111 65 197t148 86t125 -49q40 -49 40 -110
t-17 -128q-16 -67 -44 -155t-40 -141q-22 -90 34 -156t155 -66t183 84q84 83 130 223t46 271t-32 211t-92 140q-128 126 -357 127q-303 -1 -469 -233q-100 -140 -99 -320q0 -136 76 -226q16 -19 19 -31t-2 -34l-24 -92q-6 -22 -22 -30t-36 1q-78 32 -132 100
q-104 130 -104 319t91 354t279 277t453 112z" />
    <glyph glyph-name="uniE297" unicode="&#xe297;" 
d="M1245 1568q387 0 603 -280q130 -169 130 -381q0 -343 -172 -566q-82 -105 -198 -165t-230 -61q-114 1 -194 43t-111 101q-67 -266 -81 -317q-47 -168 -205 -373h-31q-36 272 3 440l149 630q-37 56 -37 183q1 126 65 212t148 86t125 -49q40 -49 40 -110t-17 -128
q-16 -67 -44 -155t-40 -141q-22 -90 34 -156t155 -66t183 84q84 83 130 223t46 271t-32 211t-92 140q-128 126 -357 127q-127 1 -235 -45t-181 -122q-152 -160 -152 -386q0 -136 76 -226q16 -19 19 -31t-2 -34l-24 -92q-12 -49 -78 -21q-40 16 -84 60q-132 129 -132 373
q0 167 91 332t279 277t453 112z" />
    <glyph glyph-name="uniE298" unicode="&#xe298;" 
d="M1084 1120q84 0 125 -49q40 -49 40 -110t-17 -128q-16 -67 -44 -155t-40 -141q-22 -90 34 -156t155 -66t183 84q84 83 130 223t46 271t-32 211t-92 140q-128 126 -357 127q-127 1 -235 -45t-181 -122q-152 -160 -152 -386q0 -136 76 -226q16 -19 19 -31t-2 -34l-24 -92
q-6 -22 -22 -30t-36 1q-78 32 -132 100q-104 130 -104 319t91 354t279 277t455 112q317 0 531 -202q127 -120 176 -292q24 -82 24 -209t-46 -273t-126 -251q-82 -105 -198 -165t-230 -61q-114 1 -194 43t-111 101l-81 -317q-40 -143 -162 -314q-47 15 -85 31q-20 206 14 351
l149 629l-9 21q-28 65 -28 177q1 111 65 197t148 86z" />
    <glyph glyph-name="uniE299" unicode="&#xe299;" 
d="M941 758q1 58 7 90q6 30 17 56q49 113 155 113q54 0 85 -38q31 -37 31 -85t-13 -100t-35 -122q-22 -69 -31 -109q-17 -71 27 -123t110 -51q131 0 211 140q79 140 79 339q0 152 -99 249q-99 96 -287 96q-189 0 -310 -128t-121 -303q0 -107 59 -177q21 -24 13 -50l-18 -72
q-11 -37 -45 -23q-91 37 -138 130q-47 92 -47 192q-1 100 25 178q54 168 213 287q158 119 406 119q125 0 233 -43t181 -115q155 -152 155 -342q0 -191 -60 -331q-60 -141 -172 -221q-111 -80 -253 -80q-71 0 -133 33t-87 79q-52 -208 -70 -272t-84 -168q-52 14 -106 38
q-5 120 15 207l116 491q-29 58 -29 116z" />
    <glyph glyph-name="uniE29F" unicode="&#xe29f;" 
d="M941 792q0 -92 29 -150l-116 -491q-20 -87 -15 -207q-241 105 -390 328q-149 222 -149 497q0 183 72 349t192 288q120 120 286 192t350 71q313 1 563 -197q152 -120 245 -305q92 -185 92 -412t-123 -441q-73 -127 -197 -233q-246 -212 -580 -212q-130 0 -255 37
q66 105 91 193l63 247q25 -46 87 -79t133 -33q142 0 253 80q112 80 172 221q60 140 60 316q0 209 -161 362t-408 153q-357 0 -540 -254q-104 -144 -104 -308q0 -121 47 -214t138 -130q34 -14 45 23l18 72q8 26 -13 50q-59 70 -59 166q0 187 121 314q121 128 310 128
q188 -1 287 -97t99 -237t-35 -250t-101 -175t-144 -65q-78 -1 -120 51q-44 52 -30 110t48 167t34 166q0 58 -31 96t-97 38t-116 -67q-50 -66 -51 -158z" />
    <glyph glyph-name="uniE35A" unicode="&#xe35a;" 
d="M1468 222q-74 0 -125 30t-67 74t-16 194v448h414v264h-414v416h-221q-12 -87 -26 -125q-53 -138 -145 -215q-45 -38 -90 -60t-122 -43v-237h193v-612q0 -120 25 -183t90 -119q135 -116 376 -116t410 109v261q-131 -86 -282 -86zM2400 -431h-2400v2400h2400v-2400z" />
    <glyph glyph-name="uniE35B" unicode="&#xe35b;" 
d="M1468 222q-74 0 -125 30t-67 74t-16 194v448h414v264h-414v416h-221q-12 -87 -26 -125q-53 -138 -145 -215q-45 -38 -90 -60t-122 -43v-237h193v-612q0 -120 25 -183t90 -119q135 -116 376 -116t410 109v261q-131 -86 -282 -86zM256 1969h1888q106 0 181 -75t75 -181
v-1888q0 -106 -75 -181t-181 -75h-1888q-106 0 -181 75t-75 181v1888q0 106 75 181t181 75z" />
    <glyph glyph-name="uniE35C" unicode="&#xe35c;" 
d="M1468 222q-74 0 -125 30t-67 74t-16 194v448h414v264h-414v416h-221q-12 -87 -26 -125q-53 -138 -145 -215q-45 -38 -90 -60t-122 -43v-237h193v-612q0 -120 25 -183t90 -119q135 -116 376 -116t410 109v261q-131 -86 -282 -86zM352 1969h1696q146 0 249 -103t103 -249
v-1696q0 -146 -103 -249t-249 -103h-1696q-146 0 -249 103t-103 249v1696q0 146 103 249t249 103z" />
    <glyph glyph-name="uniE35D" unicode="&#xe35d;" 
d="M1468 222q-74 0 -125 30t-67 74t-16 194v448h414v264h-414v416h-221q-12 -87 -26 -125q-53 -138 -145 -215q-45 -38 -90 -60t-122 -43v-237h193v-612q0 -120 25 -183t90 -119q135 -116 376 -116t410 109v261q-131 -86 -282 -86zM837 1969h726q211 -1 307 -7t184 -34
q106 -38 186 -118t110 -164t40 -173q10 -88 10 -341v-726q0 -210 -6 -306t-35 -185q-39 -106 -119 -186t-186 -119q-88 -28 -184 -34t-307 -7h-726q-211 1 -307 7t-184 34q-106 39 -186 119t-119 186q-29 89 -35 185t-6 306v726q0 253 10 341q10 89 40 173t110 164t186 118
q88 28 184 34t307 7z" />
    <glyph glyph-name="uniE35E" unicode="&#xe35e;" 
d="M1468 222q-74 0 -125 30t-67 74t-16 194v448h414v264h-414v416h-221q-12 -87 -26 -125q-53 -138 -145 -215q-45 -38 -90 -60t-122 -43v-237h193v-612q0 -120 25 -183t90 -119q135 -116 376 -116t410 109v261q-131 -86 -282 -86zM1200 1969q196 -1 379 -61t331 -171
t258 -259q112 -148 172 -330q60 -183 60 -379t-60 -379q-60 -182 -172 -330q-110 -148 -258 -259t-331 -171t-379 -61q-196 1 -379 61t-331 171t-258 259q-112 148 -172 330q-60 183 -60 379t60 379q60 182 172 330q110 148 258 259t331 171t379 61z" />
    <glyph glyph-name="uniE35F" unicode="&#xe35f;" 
d="M849 356v612h-193v237q77 21 122 43q44 22 102 70q58 50 92 116t46 108t21 106h221v-416h414v-264h-414v-448q0 -150 16 -194t67 -74t125 -30q151 0 282 86v-261q-169 -109 -409 -109t-377 116q-65 56 -90 119t-25 183z" />
    <glyph glyph-name="uniE361" unicode="&#xe361;" 
d="M1393 1056q128 0 113 -142q-8 -85 -114 -249t-158 -164q-68 0 -125 253q-19 75 -68 380q-45 282 -242 264q-83 -8 -249 -149q-122 -109 -246 -216l79 -100q114 78 133 78q87 0 162 -268l136 -491q103 -268 250 -268q238 0 576 430t350 671q15 324 -246 332
q-351 11 -476 -387q64 26 125 26zM2400 -431h-2400v2400h2400v-2400z" />
    <glyph glyph-name="uniE362" unicode="&#xe362;" 
d="M1393 1056q128 0 113 -142q-8 -85 -114 -249t-158 -164q-68 0 -125 253q-19 75 -68 380q-45 282 -242 264q-83 -8 -249 -149q-121 -108 -246 -216l79 -100q114 78 133 78q87 0 162 -268l136 -491q103 -268 250 -268q238 0 576 430t350 671q15 324 -246 332
q-351 11 -476 -387q64 26 125 26zM256 1969h1888q106 0 181 -75t75 -181v-1888q0 -106 -75 -181t-181 -75h-1888q-106 0 -181 75t-75 181v1888q0 106 75 181t181 75z" />
    <glyph glyph-name="uniE363" unicode="&#xe363;" 
d="M1393 1056q128 0 113 -142q-8 -85 -114 -249t-158 -164q-68 0 -125 253q-19 75 -68 380q-45 282 -242 264q-83 -8 -249 -149q-121 -108 -246 -216l79 -100q114 78 133 78q87 0 162 -268l136 -491q103 -268 250 -268q238 0 576 430t350 671q15 324 -246 332
q-351 11 -476 -387q64 26 125 26zM352 1969h1696q146 0 249 -103t103 -249v-1696q0 -146 -103 -249t-249 -103h-1696q-146 0 -249 103t-103 249v1696q0 146 103 249t249 103z" />
    <glyph glyph-name="uniE364" unicode="&#xe364;" 
d="M1393 1056q128 0 113 -142q-8 -85 -114 -249t-158 -164q-68 0 -125 253q-19 75 -68 380q-45 282 -242 264q-83 -8 -249 -149q-121 -108 -246 -216l79 -100q114 78 133 78q87 0 162 -268l136 -491q103 -268 250 -268q238 0 576 430t350 671q15 324 -246 332
q-351 11 -476 -387q64 26 125 26zM837 1969h726q211 -1 307 -7t184 -34q106 -38 186 -118t110 -164t40 -173q10 -88 10 -341v-726q0 -210 -6 -306t-35 -185q-39 -106 -119 -186t-186 -119q-88 -28 -184 -34t-307 -7h-726q-211 1 -307 7t-184 34q-106 39 -186 119t-119 186
q-29 89 -35 185t-6 306v726q0 253 10 341q10 89 40 173t110 164t186 118q88 28 184 34t307 7z" />
    <glyph glyph-name="uniE365" unicode="&#xe365;" 
d="M1393 1056q128 0 113 -142q-8 -85 -114 -249t-158 -164q-68 0 -125 253q-19 75 -68 380q-45 282 -242 264q-83 -8 -249 -149q-121 -108 -246 -216l79 -100q114 78 133 78q87 0 162 -268l136 -491q103 -268 250 -268q238 0 576 430t350 671q15 324 -246 332
q-351 11 -476 -387q64 26 125 26zM1200 1969q196 -1 379 -61t331 -171t258 -259q112 -148 172 -330q60 -183 60 -379t-60 -379q-60 -182 -172 -330q-110 -148 -258 -259t-331 -171t-379 -61q-196 1 -379 61t-331 171t-258 259q-112 148 -172 330q-60 183 -60 379t60 379
q60 182 172 330q110 148 258 259t331 171t379 61z" />
    <glyph glyph-name="uniE366" unicode="&#xe366;" 
d="M1064 -16q-147 0 -250 268l-136 491q-75 268 -162 268q-19 0 -133 -78l-79 100q124 108 246 216q166 141 249 149q197 19 244 -275t66 -369q57 -253 125 -253q52 0 158 164t114 249q15 142 -113 142q-61 0 -125 -26q125 398 476 387q261 -8 246 -332q-12 -241 -350 -671
t-576 -430z" />
    <glyph glyph-name="uniE410" unicode="&#xe410;" 
d="M1452 768l-45 -25l-371 257z" />
    <glyph glyph-name="uniE411" unicode="&#xe411;" 
d="M1452 768l-416 -232v464zM400 768q0 -138 13 -265q13 -125 33 -161q37 -64 81 -90t190 -35q145 -9 483 -9t482 10t190 34q44 24 77 81t45 245t0 378q-12 188 -40 236t-52 70q-49 45 -165 52q-203 14 -537 14t-480 -10t-192 -34q-44 -24 -73 -76q-29 -50 -42 -176
t-13 -264zM2400 -431h-2400v2400h2400v-2400z" />
    <glyph glyph-name="uniE412" unicode="&#xe412;" 
d="M1452 768l-416 -232v464zM400 768q0 -138 13 -265q13 -125 33 -161q37 -64 81 -90t190 -35q145 -9 483 -9t482 10t190 34q44 24 77 81t45 245t0 378q-12 188 -40 236t-52 70q-49 45 -165 52q-203 14 -537 14t-480 -10t-192 -34q-44 -24 -73 -76q-29 -50 -42 -176
t-13 -264zM256 1969h1888q106 0 181 -75t75 -181v-1888q0 -106 -75 -181t-181 -75h-1888q-106 0 -181 75t-75 181v1888q0 106 75 181t181 75z" />
    <glyph glyph-name="uniE413" unicode="&#xe413;" 
d="M1452 768l-416 -232v464zM400 768q0 -138 13 -265q13 -125 33 -161q37 -64 81 -90t190 -35q145 -9 483 -9t482 10t190 34q44 24 77 81t45 245t0 378q-12 188 -40 236t-52 70q-49 45 -165 52q-203 14 -537 14t-480 -10t-192 -34q-44 -24 -73 -76q-29 -50 -42 -176
t-13 -264zM352 1969h1696q146 0 249 -103t103 -249v-1696q0 -146 -103 -249t-249 -103h-1696q-146 0 -249 103t-103 249v1696q0 146 103 249t249 103z" />
    <glyph glyph-name="uniE414" unicode="&#xe414;" 
d="M1452 768l-416 -232v464zM400 768q0 -138 13 -265q13 -125 33 -161q37 -64 81 -90t190 -35q145 -9 483 -9t482 10t190 34q44 24 77 81t45 245t0 378q-12 188 -40 236t-52 70q-49 45 -165 52q-203 14 -537 14t-480 -10t-192 -34q-44 -24 -73 -76q-29 -50 -42 -176
t-13 -264zM837 1969h726q211 -1 307 -7t184 -34q106 -38 186 -118t110 -164t40 -173q10 -88 10 -341v-726q0 -210 -6 -306t-35 -185q-39 -106 -119 -186t-186 -119q-88 -28 -184 -34t-307 -7h-726q-211 1 -307 7t-184 34q-106 39 -186 119t-119 186q-29 89 -35 185t-6 306
v726q0 253 10 341q10 89 40 173t110 164t186 118q88 28 184 34t307 7z" />
    <glyph glyph-name="uniE415" unicode="&#xe415;" 
d="M1452 768l-416 -232v464zM400 768q0 -138 13 -265q13 -125 33 -161q37 -64 81 -90t190 -35q145 -9 483 -9t482 10t190 34q44 24 77 81t45 245t0 378q-12 188 -40 236t-52 70q-49 45 -165 52q-203 14 -537 14t-480 -10t-192 -34q-44 -24 -73 -76q-29 -50 -42 -176
t-13 -264zM1200 1969q196 -1 379 -61t331 -171t258 -259q112 -148 172 -330q60 -183 60 -379t-60 -379q-60 -182 -172 -330q-110 -148 -258 -259t-331 -171t-379 -61q-196 1 -379 61t-331 171t-258 259q-112 148 -172 330q-60 183 -60 379t60 379q60 182 172 330
q110 148 258 259t331 171t379 61z" />
    <glyph glyph-name="uniE416" unicode="&#xe416;" 
d="M1036 1000v-464l416 232zM574 234q-80 26 -125 103q-23 40 -36 166q-13 127 -13 265t13 264t42 176t73 76q44 24 192 34q146 10 480 10t480 -10t192 -34q44 -24 77 -82t45 -246t0 -378q-12 -188 -45 -245t-77 -81t-190 -34q-144 -10 -586 -10t-522 26z" />
    <glyph glyph-name="uniE417" unicode="&#xe417;" 
d="M574 234q-80 26 -125 103q-23 40 -36 166q-13 127 -13 265t13 264t42 176t73 76q44 24 192 34q146 10 480 10t480 -10t192 -34q44 -24 77 -82t45 -246t0 -378q-12 -188 -45 -245t-77 -81t-190 -34q-144 -10 -586 -10t-522 26z" />
    <glyph glyph-name="uniE418" unicode="&#xe418;" 
d="M1452 768l-416 -232v464z" />
    </font>
</defs>
</svg>
